<?xml version="1.0" standalone="no"?>
<!DOCTYPE svg PUBLIC "-//W3C//DTD SVG 1.1//EN" "http://www.w3.org/Graphics/SVG/1.1/DTD/svg11.dtd" >
<svg xmlns="http://www.w3.org/2000/svg">
<metadata></metadata>
<defs>
<font id="motiflight" horiz-adv-x="1161" >
<font-face units-per-em="2048" ascent="1638" descent="-410" />
<missing-glyph horiz-adv-x="481" />
<glyph unicode="&#xd;" horiz-adv-x="481" />
<glyph unicode=" "  horiz-adv-x="481" />
<glyph unicode="&#x09;" horiz-adv-x="481" />
<glyph unicode="&#xa0;" horiz-adv-x="481" />
<glyph unicode="!" horiz-adv-x="534" d="M166 82q0 45 29.5 74.5t74.5 29.5q44 0 73.5 -29t29.5 -75q0 -45 -29 -73.5t-74 -28.5t-74.5 28.5t-29.5 73.5zM203 1434h137l-12 -1024h-115z" />
<glyph unicode="&#x22;" horiz-adv-x="823" d="M172 1524h125l-16 -584h-95zM530 1524h125l-16 -584h-92z" />
<glyph unicode="#" horiz-adv-x="1374" d="M59 438v107h324l66 360h-299v107h317l78 422h114l-79 -422h346l80 422h110l-80 -422h275v-107h-291l-68 -360h271v-107h-291l-82 -436l-111 -2l82 438h-346l-82 -438h-112l84 438h-306zM494 545h344l69 360h-344z" />
<glyph unicode="$" horiz-adv-x="1114" d="M104 266l121 70q33 -93 117 -160.5t190 -79.5v586q-53 16 -89.5 30t-86.5 37.5t-84 52.5t-65.5 68.5t-47.5 93t-16 117.5q0 150 109 257.5t280 119.5v182h97v-186q134 -14 221.5 -82.5t142.5 -181.5l-116 -62q-75 181 -248 207v-555q60 -17 107 -36.5t98 -54t85 -77 t56 -107.5t22 -145q0 -148 -99 -253.5t-269 -126.5v-189h-97v184q-146 9 -260 87t-168 204zM274 1085q0 -60 20.5 -106.5t59.5 -78.5t80.5 -52.5t97.5 -38.5v530q-110 -9 -184 -80.5t-74 -173.5zM629 98q111 20 174 92t63 166q0 63 -18.5 112.5t-54 83.5t-74 56t-90.5 41 v-551z" />
<glyph unicode="%" horiz-adv-x="1613" d="M125 1155q0 123 91.5 213t217.5 90q123 0 214 -90t91 -213q0 -126 -91 -218.5t-214 -92.5q-126 0 -217.5 92.5t-91.5 218.5zM164 0l1149 1434h141l-1149 -1434h-141zM227 1153q0 -86 60.5 -146.5t146.5 -60.5q83 0 142 60.5t59 146.5q0 83 -59 143t-142 60 q-86 0 -146.5 -59.5t-60.5 -143.5zM879 285q0 123 91.5 213t217.5 90q123 0 214 -90t91 -213q0 -126 -91 -218t-214 -92q-126 0 -217.5 92t-91.5 218zM985 283q0 -83 59 -142t144 -59q82 0 139 59t57 142q0 82 -57 140t-139 58q-85 0 -144 -58t-59 -140z" />
<glyph unicode="&#x26;" horiz-adv-x="1370" d="M139 344q0 68 21.5 128t65.5 113.5t97 99t128 95.5q-89 100 -136 180.5t-47 172.5q0 137 95 225t243 88q150 0 240 -84.5t90 -218.5q0 -107 -69.5 -190t-233.5 -197l344 -387l215 258l90 -76l-233 -270l243 -275v-6h-147l-178 207q-48 -55 -81 -86.5t-85.5 -68 t-117.5 -53.5t-146 -17q-164 0 -281 105.5t-117 256.5zM272 352q0 -105 83 -182.5t186 -77.5q60 0 110 15t93 47.5t70.5 60t68.5 76.5l-355 395q-66 -44 -108.5 -78t-78.5 -74.5t-52.5 -85t-16.5 -96.5zM393 1135q0 -40 11.5 -77.5t41 -80t47.5 -65t62 -72.5 q93 60 143 101.5t80.5 91.5t30.5 108q0 87 -55.5 142.5t-147.5 55.5q-98 0 -155.5 -57t-57.5 -147z" />
<glyph unicode="'" horiz-adv-x="464" d="M170 1526h123l-17 -584h-92z" />
<glyph unicode="(" horiz-adv-x="772" d="M90 668q1 278 116 521t314 398h137q-214 -173 -328 -411t-114 -508q0 -273 114 -511t328 -411h-137q-199 155 -314 399t-116 523z" />
<glyph unicode=")" horiz-adv-x="772" d="M125 -254q214 172 327 410.5t113 511.5q0 271 -113.5 508.5t-326.5 410.5h135q200 -155 315 -398.5t115 -520.5q0 -279 -115 -523t-315 -399h-135z" />
<glyph unicode="*" horiz-adv-x="993" d="M115 866l288 168l-288 166l51 84l285 -170l-2 336h96v-336l282 170l50 -84l-289 -166l289 -168l-50 -84l-282 172v-327h-96l2 327l-285 -170z" />
<glyph unicode="+" horiz-adv-x="1079" d="M94 676v117h385v385h119v-385h385v-117h-385v-385h-119v385h-385z" />
<glyph unicode="," horiz-adv-x="501" d="M104 -211q150 75 160 209q-24 -4 -28 -4q-43 0 -70 29t-27 69q0 43 30 74t79 31q51 0 79.5 -35.5t28.5 -98.5q0 -270 -252 -374v100z" />
<glyph unicode="-" horiz-adv-x="804" d="M94 573v117h615v-117h-615z" />
<glyph unicode="." horiz-adv-x="509" d="M156 90q0 46 30 75.5t74 29.5q45 0 75 -30t30 -75q0 -44 -30 -73t-75 -29q-44 0 -74 29t-30 73z" />
<glyph unicode="/" horiz-adv-x="864" d="M37 -41l657 1516h135l-657 -1516h-135z" />
<glyph unicode="0" horiz-adv-x="1294" d="M143 717q0 217 60 384t175.5 262t270.5 95q153 0 267 -95t173.5 -262t59.5 -384q0 -220 -59.5 -387.5t-173.5 -261t-267 -93.5q-155 0 -270 93.5t-175.5 261t-60.5 387.5zM279 717q0 -282 98.5 -447.5t271.5 -165.5q172 0 269.5 165.5t97.5 447.5q0 279 -98 445.5 t-269 166.5q-173 0 -271.5 -166.5t-98.5 -445.5z" />
<glyph unicode="1" horiz-adv-x="849" d="M86 997v150l403 287h115v-1434h-127v1272l-387 -279z" />
<glyph unicode="2" horiz-adv-x="1093" d="M139 0v150l277 274q64 62 95.5 93t83 84.5t77.5 86t59.5 80t49 85t27 82.5t11.5 89q1 138 -85 219.5t-218 81.5q-205 0 -352 -174l-6 2v158q157 147 370 147q185 0 309 -114.5t124 -303.5q0 -64 -12 -121.5t-39.5 -113t-56.5 -100t-81 -102t-92.5 -98t-110.5 -106.5 l-286 -280h704v-119h-848z" />
<glyph unicode="3" horiz-adv-x="1103" d="M123 127v160l6 2q149 -193 395 -193q139 0 231.5 78.5t92.5 218.5q0 144 -103.5 216.5t-281.5 72.5h-82v117h82q147 0 245.5 71t98.5 199q0 125 -87 195.5t-226 70.5q-96 0 -184.5 -40.5t-155.5 -120.5l-7 2v147q153 135 367 135q188 0 305 -98.5t117 -263.5 q0 -129 -69.5 -217t-186.5 -121q138 -35 217.5 -133t79.5 -252q0 -121 -62 -213t-160.5 -138.5t-215.5 -46.5q-258 0 -416 152z" />
<glyph unicode="4" horiz-adv-x="1142" d="M43 328v100l678 1006h137v-992h197v-114h-197v-328h-125v328h-690zM193 442h546l2 809z" />
<glyph unicode="5" horiz-adv-x="1110" d="M63 199l89 96h6q138 -197 354 -197q63 0 123.5 21t112 62t83 109.5t31.5 153.5q0 89 -31.5 159.5t-83 111.5t-109.5 61.5t-118 20.5q-169 0 -280 -117l-101 47l103 707h649v-119l-547 2l-70 -483q104 79 269 79q68 0 133.5 -18.5t123.5 -57t101.5 -93t69 -132.5 t24.5 -170q-1 -111 -40.5 -200.5t-106 -147t-152.5 -88.5t-184 -31q-141 0 -249 56t-200 168z" />
<glyph unicode="6" horiz-adv-x="1196" d="M135 455q0 114 37 203.5t102 187.5l379 588h148l-387 -584q99 70 248 70q85 0 163 -32t139 -89.5t97.5 -145.5t36.5 -192q0 -93 -31 -179.5t-89 -156t-152 -111t-210 -41.5q-111 0 -204 41t-152.5 109t-92 154t-32.5 178zM266 451q0 -47 11 -94.5t37.5 -96t65.5 -86 t100 -61t136 -23.5q88 0 157 31t110.5 84t62.5 118t21 138q0 154 -96.5 255t-247.5 101q-153 0 -255 -102.5t-102 -263.5z" />
<glyph unicode="7" horiz-adv-x="983" d="M76 1309v125h887v-109l-629 -1325h-150l635 1309h-743z" />
<glyph unicode="8" horiz-adv-x="1189" d="M121 395q0 138 81.5 238.5t190.5 132.5q-91 30 -162 115t-71 204q0 161 120.5 267t315.5 106t316.5 -106t121.5 -267q0 -121 -66 -200.5t-171 -118.5q121 -39 196.5 -135.5t75.5 -237.5q0 -181 -131 -298.5t-344 -117.5t-343 118t-130 300zM256 397q0 -133 94 -219 t244 -86q148 0 242 86t94 219q0 131 -91 221.5t-245 90.5q-156 0 -247 -90t-91 -222zM295 1079q0 -117 84.5 -190.5t216.5 -73.5t216.5 73.5t84.5 190.5q0 120 -84.5 196.5t-216.5 76.5t-216.5 -76.5t-84.5 -196.5z" />
<glyph unicode="9" horiz-adv-x="1196" d="M117 973q0 93 32 179.5t90.5 155.5t152 110.5t206.5 41.5q115 0 208.5 -42t151.5 -111.5t88.5 -154t30.5 -173.5q0 -79 -24 -158t-46.5 -121t-66.5 -112l-373 -588h-147l375 575q-98 -61 -230 -61q-89 0 -169.5 32t-142.5 89.5t-99 145t-37 192.5zM246 973 q0 -153 97.5 -255t248.5 -102q152 0 253 103t101 264q0 60 -18.5 119t-56.5 115t-109 91t-164 35q-85 0 -154 -31t-111 -83.5t-64.5 -118t-22.5 -137.5z" />
<glyph unicode=":" horiz-adv-x="516" d="M160 90q0 46 30 75.5t74 29.5q43 0 73 -30t30 -75q0 -44 -30 -73t-73 -29q-44 0 -74 29t-30 73zM160 868q0 46 30 75.5t74 29.5q43 0 73 -30t30 -75q0 -43 -30 -72.5t-73 -29.5q-44 0 -74 29.5t-30 72.5z" />
<glyph unicode=";" horiz-adv-x="516" d="M115 -211q149 74 159 209q-24 -4 -28 -4q-43 0 -69.5 29t-26.5 69q0 43 29.5 74t78.5 31q51 0 80 -35.5t29 -98.5q0 -270 -252 -374v100zM143 868q0 46 30.5 75.5t76.5 29.5q43 0 72.5 -30t29.5 -75q0 -43 -29.5 -72.5t-72.5 -29.5q-46 0 -76.5 29.5t-30.5 72.5z" />
<glyph unicode="&#x3c;" horiz-adv-x="1079" d="M111 674v121l886 338v-121l-747 -277l747 -274v-125z" />
<glyph unicode="=" horiz-adv-x="1079" d="M94 414v116h889v-116h-889zM94 803v115h889v-115h-889z" />
<glyph unicode="&#x3e;" horiz-adv-x="1079" d="M94 336v125l748 274l-748 277v121l889 -338v-121z" />
<glyph unicode="?" horiz-adv-x="935" d="M49 1214q135 242 397 242q82 -1 151 -29t115 -74.5t71.5 -108.5t25.5 -130q0 -66 -18 -121t-46.5 -93.5t-63.5 -73t-70.5 -67.5t-65 -68t-49 -83t-21.5 -104v-90h-123v102q3 66 22.5 122t48.5 94.5t63.5 72t68.5 64.5t62 63.5t45.5 75.5t17.5 94q0 98 -67 163t-164 68 q-191 3 -289 -192h-4zM322 82q0 46 29 75t75 29q44 0 73 -29t29 -75q0 -45 -28.5 -73.5t-73.5 -28.5q-46 0 -75 28t-29 74z" />
<glyph unicode="@" horiz-adv-x="1972" d="M119 532q0 265 117 471t316.5 316.5t444.5 110.5q252 0 448 -110t305.5 -312.5t109.5 -466.5q0 -102 -25 -197t-71 -172t-120.5 -123.5t-164.5 -46.5q-122 0 -191.5 72t-62.5 202q-41 -101 -133.5 -169t-227.5 -68q-171 0 -263.5 142t-57.5 349q35 209 164 338t301 129 q111 0 186 -63.5t94 -165.5l35 188h102l-98 -585q-22 -127 26.5 -199t129.5 -72q86 0 148 67.5t90 165t28 208.5q0 177 -56.5 325.5t-156.5 250t-238.5 158t-300.5 56.5q-158 0 -297.5 -57.5t-241.5 -160t-161 -253.5t-59 -328q0 -185 58.5 -336t161.5 -250t241.5 -152.5 t299.5 -53.5q145 0 256 43v-113q-126 -35 -256 -35q-185 0 -346 63t-279.5 177t-186.5 283.5t-68 373.5zM662 520q-28 -165 33 -265.5t190 -100.5q127 0 223 102.5t121 263.5q26 166 -33.5 265.5t-185.5 99.5q-129 0 -224.5 -100t-123.5 -265z" />
<glyph unicode="A" horiz-adv-x="1439" d="M92 0l547 1434h166l543 -1434h-142l-159 430h-656l-162 -430h-137zM434 547h567l-282 760z" />
<glyph unicode="B" horiz-adv-x="1304" d="M236 0v1434h415q210 0 331.5 -91t121.5 -276q0 -110 -57.5 -197t-157.5 -131q51 -16 95.5 -43.5t83 -68t61 -99t22.5 -127.5q0 -401 -471 -401h-444zM365 115h313q165 0 252.5 72t87.5 219q0 85 -48 147.5t-118.5 91.5t-149.5 29h-337v-559zM365 786h329 q118 0 198.5 76.5t80.5 192.5q0 127 -88 195.5t-248 68.5h-272v-533z" />
<glyph unicode="C" horiz-adv-x="1439" d="M139 717q0 167 60.5 308t162 234.5t233.5 146t277 52.5q248 0 418 -125v-149l-4 -2q-92 79 -187.5 115t-224.5 36q-117 0 -226 -44t-192.5 -122t-133.5 -195.5t-50 -254.5t50 -254t133.5 -195.5t192.5 -123t226 -44.5q130 0 221.5 33.5t186.5 114.5l2 -2v-150 q-164 -121 -412 -121q-145 0 -277 52.5t-233.5 146.5t-162 235t-60.5 308z" />
<glyph unicode="D" horiz-adv-x="1566" d="M236 0v1434h454q156 0 290.5 -47.5t234.5 -136.5t157.5 -226t57.5 -307q0 -137 -37 -253t-104 -200.5t-159.5 -144.5t-203.5 -89.5t-236 -29.5h-454zM365 119h309q132 0 244.5 38t197 111t132.5 188t48 259q0 192 -82 329.5t-220.5 204t-319.5 66.5h-309v-1196z" />
<glyph unicode="E" horiz-adv-x="1208" d="M236 0v1434h811v-119h-682v-524h643v-119h-643v-553h682v-119h-811z" />
<glyph unicode="F" horiz-adv-x="1134" d="M236 0v1434h794v-119h-665v-518h626v-119h-626v-678h-129z" />
<glyph unicode="G" horiz-adv-x="1636" d="M137 715q0 -168 57 -308.5t154.5 -234t227 -145.5t274.5 -52q313 0 483 182t176 507q0 9 -1 29t-1 28h-721v-119h582q-3 -233 -138 -368.5t-378 -135.5q-117 0 -222 43.5t-184.5 122t-126.5 196t-47 255.5q0 141 51 258.5t136 194.5t194.5 119t229.5 42q323 0 530 -256 l4 2v170q-227 213 -536 213q-148 0 -283 -52.5t-237.5 -146.5t-163 -235.5t-60.5 -308.5z" />
<glyph unicode="H" horiz-adv-x="1505" d="M236 0v1434h129v-646h774v646h129v-1434h-129v670h-774v-670h-129z" />
<glyph unicode="I" horiz-adv-x="600" d="M236 0v1434h129v-1434h-129z" />
<glyph unicode="J" horiz-adv-x="710" d="M74 -6v123q40 -17 98 -17q81 0 132.5 47.5t51.5 157.5v1129h129v-1135q0 -87 -23.5 -150.5t-65.5 -99.5t-92 -52.5t-111 -16.5q-62 0 -119 14z" />
<glyph unicode="K" horiz-adv-x="1296" d="M236 0v1434h129v-682l626 682h172l-655 -701l668 -733h-179l-632 715v-715h-129z" />
<glyph unicode="L" horiz-adv-x="1042" d="M236 0v1434h129v-1315h616v-119h-745z" />
<glyph unicode="M" horiz-adv-x="1929" d="M150 0l231 1434h166l414 -1233l413 1233h166l240 -1434h-133l-209 1235l-418 -1235h-119l-422 1237l-198 -1237h-131z" />
<glyph unicode="N" horiz-adv-x="1517" d="M236 0v1434h145l770 -1217v1217h131v-1434h-145l-772 1217v-1217h-129z" />
<glyph unicode="O" horiz-adv-x="1691" d="M137 717q0 -135 37 -253t103 -206.5t155 -153t195 -97t221 -32.5q143 0 271.5 52t225.5 145.5t154 235t57 309.5q0 167 -57 308t-154 234.5t-225.5 146t-271.5 52.5q-115 0 -221 -33t-195 -97t-155 -152.5t-103 -206.5t-37 -252zM272 717q0 138 47 255.5t126 195.5 t183 121.5t218 43.5q92 0 177.5 -27.5t157.5 -80.5t126 -127t84 -172t30 -209q0 -140 -46.5 -257.5t-126 -195.5t-183.5 -121t-219 -43q-114 0 -218 43.5t-183 121.5t-126 195.5t-47 256.5z" />
<glyph unicode="P" horiz-adv-x="1273" d="M236 0v1434h456q242 0 373 -102.5t131 -305.5q0 -204 -131.5 -310t-372.5 -106h-327v-610h-129zM365 729h299q199 0 299 69.5t100 225.5q0 155 -99.5 223t-299.5 68h-299v-586z" />
<glyph unicode="Q" horiz-adv-x="1689" d="M137 717q0 134 37 252t103 206.5t155 152.5t195 97t221 33q143 0 271.5 -52.5t225.5 -146t154 -234.5t57 -308q0 -187 -67.5 -336.5t-188.5 -247.5l177 -188l-95 -86l-184 204q-161 -88 -350 -88q-115 0 -221 32.5t-195 97t-155 153t-103 206.5t-37 253zM272 717 q0 -139 47 -256.5t126 -195.5t183 -121.5t218 -43.5q141 0 262 62l-297 317l92 86l307 -336q99 82 155 207t56 281q0 111 -30 209t-84 172t-126 127t-157.5 80.5t-177.5 27.5q-114 0 -218 -43.5t-183 -121.5t-126 -195.5t-47 -255.5z" />
<glyph unicode="R" horiz-adv-x="1331" d="M236 0v1434h460q151 0 257.5 -40t168.5 -131t62 -229q0 -109 -38.5 -187.5t-109.5 -122.5t-157 -63.5t-193 -19.5h-133l661 -641h-176l-673 664v-664h-129zM365 756h319q57 0 102.5 5t98 22t88 45.5t59 80.5t23.5 123q0 156 -96.5 219.5t-276.5 63.5h-317v-559z" />
<glyph unicode="S" d="M125 266l121 70q43 -106 133.5 -171.5t212.5 -66.5q136 1 217.5 76t81.5 182q0 44 -11 82t-26.5 65.5t-44 52.5t-52.5 40.5t-63.5 32t-65.5 25.5t-69 22q-44 13 -76 24t-75.5 31t-75 40.5t-65 52.5t-54 68t-34 86t-13.5 107q0 155 116.5 263.5t303.5 109.5 q167 -1 267.5 -70t162.5 -198l-117 -62q-86 208 -313 211q-121 -2 -204 -74t-83 -178q0 -47 12.5 -85.5t38.5 -67t53 -49t69.5 -38t74 -28t78.5 -24.5q3 -1 5 -1.5t4.5 -1t4.5 -1.5q63 -19 110.5 -39t101 -55t88.5 -78.5t58 -110t23 -148.5q0 -164 -117.5 -274.5 t-316.5 -110.5q-161 0 -278 76.5t-183 214.5z" />
<glyph unicode="T" horiz-adv-x="1087" d="M41 1315v119h1006v-119h-439v-1315h-129v1315h-438z" />
<glyph unicode="U" horiz-adv-x="1460" d="M209 594v840h129v-832q0 -242 103 -373t290 -131t289 131t102 373v832h131v-840q0 -299 -142 -459t-380 -160t-380 160t-142 459z" />
<glyph unicode="V" horiz-adv-x="1302" d="M74 1434h143l438 -1307l439 1307h137l-492 -1434h-170z" />
<glyph unicode="W" horiz-adv-x="1935" d="M88 1434h141l330 -1282l338 1282h143l338 -1282l332 1282h137l-389 -1434h-162l-329 1208l-328 -1208h-160z" />
<glyph unicode="X" horiz-adv-x="1349" d="M100 0l498 741l-463 693h156l379 -578l381 578h155l-461 -686l506 -748h-157l-418 633l-424 -633h-152z" />
<glyph unicode="Y" horiz-adv-x="1189" d="M41 1434h154l401 -705l405 705h148l-490 -832v-602h-129v602z" />
<glyph unicode="Z" horiz-adv-x="1245" d="M129 0v109l827 1206h-811v119h967v-111l-827 -1204h835v-119h-991z" />
<glyph unicode="[" horiz-adv-x="636" d="M197 -254v1841h358v-102h-238v-1637h238v-102h-358z" />
<glyph unicode="\" horiz-adv-x="1216" d="M387 1475h135l658 -1516h-136z" />
<glyph unicode="]" horiz-adv-x="636" d="M84 -152h240v1637h-240v102h358v-1841h-358v102z" />
<glyph unicode="^" horiz-adv-x="1071" d="M84 369l383 1065h139l385 -1065h-137l-315 913l-314 -913h-141z" />
<glyph unicode="_" horiz-adv-x="1214" d="M-8 -170h1229v-117h-1229v117z" />
<glyph unicode="`" horiz-adv-x="526" d="M88 1481h150l188 -293h-129z" />
<glyph unicode="a" d="M182 848q66 116 167 177.5t226 61.5q178 0 275.5 -96.5t97.5 -283.5v-707h-119v182q-40 -88 -124 -144t-203 -56q-143 0 -230.5 80t-87.5 202q0 79 27 137.5t79.5 95.5t111.5 59t143 40q65 14 109.5 27t85 31.5t61 43.5t20.5 56q0 91 -65 153t-183 62q-94 0 -169.5 -53.5 t-120.5 -149.5zM317 272q0 -81 57.5 -129.5t143.5 -48.5q74 0 134 28t95.5 74t54.5 100.5t19 111.5v180q-86 -64 -258 -101q-60 -13 -101.5 -28.5t-76 -40t-51.5 -61t-17 -85.5z" />
<glyph unicode="b" horiz-adv-x="1300" d="M225 0v1516h129v-674q49 117 144.5 181t220.5 64q193 0 316.5 -157.5t123.5 -397.5q0 -249 -124.5 -403t-319.5 -154q-130 0 -229 69t-142 185l-4 -229h-115zM352 528q0 -189 100 -316.5t244 -127.5q151 0 243.5 126.5t92.5 317.5q0 193 -95.5 320t-242.5 127 q-151 0 -246.5 -125t-95.5 -322z" />
<glyph unicode="c" horiz-adv-x="1064" d="M129 535q0 134 45.5 242.5t119 174t160 100.5t175.5 35q93 0 158 -18.5t131 -62.5v-146h-7q-56 52 -115.5 77.5t-150.5 25.5q-54 0 -108 -16t-105 -51t-90 -84t-62.5 -121t-23.5 -156q0 -102 36 -187t93.5 -137t125 -80.5t134.5 -28.5q93 0 153 26t113 75l7 -2v-146 q-106 -80 -283 -80q-91 0 -179 36.5t-162 103.5t-119.5 177t-45.5 243z" />
<glyph unicode="d" horiz-adv-x="1300" d="M139 532q0 157 56 283.5t157.5 199t229.5 72.5q123 0 218 -64t144 -181v674h129v-1516h-115l-2 229q-45 -116 -142.5 -185t-227.5 -69q-195 0 -321 154.5t-126 402.5zM266 528q0 -191 92.5 -317.5t243.5 -126.5q146 0 246 127.5t100 316.5q0 198 -96 322.5t-248 124.5 q-146 0 -242 -127.5t-96 -319.5z" />
<glyph unicode="e" horiz-adv-x="1173" d="M131 551q0 233 137.5 384.5t333.5 151.5q104 0 189 -39t140.5 -106t85.5 -154.5t32 -185.5v-84h-791q3 -202 108 -313t261 -111q115 0 188 48.5t127 129.5l98 -84q-67 -98 -169.5 -155.5t-235.5 -57.5q-106 0 -197 37.5t-159.5 108t-108 181.5t-39.5 249zM262 629h664 q-3 88 -38.5 163t-109.5 126t-174 51q-139 0 -233.5 -96.5t-108.5 -243.5z" />
<glyph unicode="f" horiz-adv-x="679" d="M113 946v119h145v139q0 322 332 322h22v-115h-20q-203 0 -203 -217v-129h217v-119h-217v-946h-129v946h-147z" />
<glyph unicode="g" horiz-adv-x="1288" d="M150 596q0 115 37 209.5t99 155.5t142 93.5t168 32.5q74 0 136 -20t104 -55t70.5 -72t47.5 -80v205h119v-948q0 -251 -124 -389t-341 -138q-278 0 -442 260l92 84h6q54 -104 145 -165.5t201 -61.5q164 0 257.5 109.5t93.5 304.5v207q-38 -97 -132 -166.5t-227 -69.5 q-91 0 -173 35t-144 98.5t-98.5 159.5t-36.5 211zM274 592q0 -163 98.5 -273t237.5 -110q146 0 240 108t94 275q0 168 -94 275.5t-242 107.5q-145 0 -239.5 -108t-94.5 -275z" />
<glyph unicode="h" horiz-adv-x="1243" d="M227 0v1516h129v-648q46 100 135 158.5t197 58.5q167 0 252.5 -104t85.5 -336v-645h-129v614q0 184 -54 270.5t-179 86.5q-94 0 -165.5 -58t-107 -148t-35.5 -194v-571h-129z" />
<glyph unicode="i" horiz-adv-x="581" d="M186 1329q0 43 30.5 73t74.5 30q45 0 75.5 -30t30.5 -73q0 -44 -30 -74t-76 -30q-44 0 -74.5 30t-30.5 74zM225 0v1065h131v-1065h-131z" />
<glyph unicode="j" horiz-adv-x="600" d="M2 -299v-125q36 -8 84 -8q57 0 106.5 18t91.5 55t66.5 102.5t24.5 152.5v1169h-129v-1159q0 -64 -15 -108.5t-42.5 -66t-56.5 -30t-66 -8.5q-40 0 -64 8zM205 1329q0 43 30 73t74 30q45 0 76 -30t31 -73q0 -44 -30.5 -74t-76.5 -30q-44 0 -74 30t-30 74z" />
<glyph unicode="k" horiz-adv-x="1179" d="M225 0v1516h129v-961l541 510h174l-561 -512l565 -553h-174l-545 547v-547h-129z" />
<glyph unicode="l" horiz-adv-x="581" d="M225 0v1518h129v-1518h-129z" />
<glyph unicode="m" horiz-adv-x="1796" d="M225 0v1063h115l2 -180q45 96 130 150t196 54q104 0 175.5 -59t92.5 -147q102 206 330 206q147 0 231 -96t84 -272v-719h-129v680q0 129 -54.5 210t-154.5 81q-130 0 -204 -93t-74 -262v-616h-129v678q0 138 -50 215.5t-153 77.5q-121 0 -200 -89.5t-79 -246.5v-635h-129 z" />
<glyph unicode="n" horiz-adv-x="1243" d="M225 0v1065h117v-207q45 106 129 166.5t195 60.5q360 0 360 -440v-645h-131v614q0 182 -58.5 269.5t-185.5 87.5q-93 0 -162 -58.5t-102 -148t-33 -193.5v-571h-129z" />
<glyph unicode="o" horiz-adv-x="1292" d="M131 530q0 129 42.5 236.5t114.5 176.5t164.5 106.5t194.5 37.5t194.5 -37.5t164.5 -106.5t114.5 -176.5t42.5 -236.5t-42.5 -236t-114.5 -175.5t-164.5 -106t-194.5 -37.5t-194.5 37.5t-164.5 106t-114.5 175.5t-42.5 236zM258 530q0 -198 112.5 -317t276.5 -119 t276.5 119t112.5 317q0 197 -113 319t-276 122t-276 -122t-113 -319z" />
<glyph unicode="p" horiz-adv-x="1300" d="M225 -401v1466h115l2 -227q43 116 142 184t229 68q195 0 320.5 -154.5t125.5 -403.5q0 -158 -56 -284.5t-157 -198.5t-229 -72q-124 0 -219 62.5t-144 177.5v-618h-129zM350 535q0 -197 96 -322t248 -125q146 0 242 128t96 319q0 192 -92.5 318t-243.5 126 q-146 0 -246 -126t-100 -318z" />
<glyph unicode="q" horiz-adv-x="1300" d="M139 532q0 248 126 403t321 155q131 0 228 -66.5t142 -181.5l2 223h115v-1466h-129v616q-49 -115 -143.5 -176.5t-218.5 -61.5q-194 0 -318.5 157.5t-124.5 397.5zM266 535q0 -191 96 -319t242 -128q152 0 248 125.5t96 321.5q0 192 -100 318t-246 126 q-151 0 -243.5 -126t-92.5 -318z" />
<glyph unicode="r" horiz-adv-x="755" d="M225 0v1065h117l2 -217q35 101 114.5 168t190.5 67q37 0 53 -4v-135q-24 6 -59 6q-125 0 -207 -107t-82 -251v-592h-129z" />
<glyph unicode="s" horiz-adv-x="980" d="M143 180l109 86q40 -74 111.5 -123t152.5 -49q94 0 149.5 53t55.5 123q0 40 -13 72t-30.5 52t-51 38t-57 27t-65.5 22q-41 13 -64 20.5t-62.5 24t-62.5 31.5t-52.5 40t-45.5 52t-27.5 64.5t-11.5 81.5q0 132 99.5 212t236.5 80q112 0 190.5 -47t139.5 -143l-111 -72 q-76 144 -225 144q-80 0 -139.5 -48.5t-59.5 -121.5q0 -26 8 -49t18 -39t32.5 -32t35.5 -24t45 -20t44 -16t47 -15q53 -16 89 -29.5t82 -41t74 -60.5t48 -85.5t20 -117.5q0 -121 -92 -208t-246 -87q-119 0 -209.5 50.5t-161.5 154.5z" />
<glyph unicode="t" horiz-adv-x="753" d="M74 946v119h207v356h129v-356h292v-119h-292v-946h-129v946h-207z" />
<glyph unicode="u" horiz-adv-x="1243" d="M217 420v645h129v-614q0 -182 59 -269.5t185 -87.5q93 0 163 58.5t103 148t33 193.5v571h129v-1065h-119v207q-45 -107 -129 -168.5t-192 -61.5q-171 0 -266 106.5t-95 336.5z" />
<glyph unicode="v" horiz-adv-x="1067" d="M78 1065h141l313 -915l318 915h137l-385 -1065h-141z" />
<glyph unicode="w" horiz-adv-x="1685" d="M98 1065h138l260 -889l280 889h146l276 -897l258 897h131l-325 -1065h-134l-284 891l-287 -891h-131z" />
<glyph unicode="x" horiz-adv-x="1138" d="M106 0l392 561l-351 504h148l276 -403l275 403h145l-350 -506l389 -559h-145l-320 459l-313 -459h-146z" />
<glyph unicode="y" horiz-adv-x="1105" d="M94 1065h139l336 -774l336 774h139l-659 -1466h-133l252 553z" />
<glyph unicode="z" horiz-adv-x="1038" d="M143 0v119l584 827h-573v119h716v-119l-581 -827h590v-119h-736z" />
<glyph unicode="{" horiz-adv-x="735" d="M80 606v129q80 0 129 38t49 116v438q0 132 72 196t205 64h47v-102h-50q-79 0 -122 -50t-43 -128v-435q0 -171 -164 -200q169 -26 164 -199l-2 -453q0 -79 44 -128.5t123 -49.5h50v-104h-47q-132 0 -204.5 65t-72.5 197v455q0 78 -48.5 114.5t-129.5 36.5z" />
<glyph unicode="|" horiz-adv-x="579" d="M227 -254v1841h131v-1841h-131z" />
<glyph unicode="}" horiz-adv-x="735" d="M154 -158h49q80 0 125 49.5t43 128.5l-2 453q-2 173 166 199q-166 30 -166 200v435q0 78 -43.5 128t-122.5 50h-49v102h47q276 0 276 -260v-438q0 -78 50 -116t130 -38v-129q-81 0 -130.5 -37t-49.5 -114v-455q0 -132 -71.5 -197t-204.5 -65h-47v104z" />
<glyph unicode="~" horiz-adv-x="1079" d="M74 494q2 129 68 217t182 88q59 0 111.5 -20.5t91 -49.5t74 -57.5t75.5 -49t80 -20.5q63 0 96.5 44.5t36.5 121.5h115q-3 -126 -63 -206.5t-163 -80.5q-56 0 -107 20t-89 48.5t-74.5 56.5t-78.5 48t-85 20q-75 0 -115 -48.5t-43 -131.5h-112z" />
<glyph unicode="&#xa1;" horiz-adv-x="534" d="M166 987q0 -47 29.5 -76.5t74.5 -29.5t74 29.5t29 76.5q0 44 -29 72t-74 28t-74.5 -28t-29.5 -72zM203 -367h137l-12 1024h-115z" />
<glyph unicode="&#xa2;" horiz-adv-x="1040" d="M129 535q0 120 37 220.5t98.5 166.5t136 106t156.5 53v183h96v-177q84 -3 144 -23t121 -63v-145h-7q-53 53 -112 79.5t-146 27.5v-861q89 1 148.5 27.5t109.5 75.5l7 -2v-146q-112 -79 -265 -82v-176h-96v183q-82 14 -157 56.5t-136.5 109.5t-98 167.5t-36.5 219.5z M256 535q0 -86 25.5 -160t68.5 -125.5t95.5 -85.5t111.5 -49v837q-59 -15 -111.5 -48t-95.5 -83t-68.5 -124t-25.5 -162z" />
<glyph unicode="&#xa3;" horiz-adv-x="1247" d="M213 655v109h190q-8 37 -27 94t-29.5 106.5t-10.5 108.5q0 163 105.5 271t291.5 108q181 0 301 -133v-148h-4q-51 76 -126.5 123t-164.5 47q-137 0 -210.5 -82.5t-73.5 -214.5q0 -58 29.5 -153.5t35.5 -126.5l338 -2v-109l-326 2v-24q0 -138 -43 -275.5t-116 -236.5h747 v-119h-893v111q189 234 189 514v30h-203z" />
<glyph unicode="&#xa4;" horiz-adv-x="1327" d="M125 236l178 176q-104 129 -104 299q0 167 104 299l-178 174l86 86l176 -178q133 102 297 102q168 0 297 -104l180 180l84 -84l-180 -178q102 -133 102 -297q0 -167 -100 -297l176 -178l-84 -86l-178 178q-134 -103 -297 -103t-297 103l-176 -178zM324 711 q0 -151 104.5 -256t255.5 -105q149 0 253.5 105t104.5 256q0 149 -104.5 253.5t-253.5 104.5q-151 0 -255.5 -104.5t-104.5 -253.5z" />
<glyph unicode="&#xa5;" horiz-adv-x="1271" d="M80 1434h149l406 -701l409 701h144l-436 -742h270v-98h-324v-170h324v-98h-324v-326h-129v326h-315v98h315v170h-315v98h262z" />
<glyph unicode="&#xa6;" horiz-adv-x="579" d="M227 -254v754h131v-754h-131zM227 823v764h131v-764h-131z" />
<glyph unicode="&#xa7;" horiz-adv-x="1116" d="M119 -129l110 57q37 -94 132.5 -155t211.5 -62q133 1 216 72t83 170q0 54 -19 96.5t-41.5 68t-70.5 49.5t-76.5 33.5t-88.5 27.5q-22 7 -33 10q-50 14 -88 27.5t-86 34.5t-82 47t-64.5 59.5t-46.5 78.5t-16 97q0 161 178 252q-168 92 -168 286q0 142 120.5 239t297.5 99 q162 -1 261.5 -64.5t160.5 -183.5l-113 -51q-84 197 -311 197q-120 0 -203.5 -67t-83.5 -167q0 -31 7 -58t16 -47.5t28.5 -40t34.5 -33t44.5 -27.5t47 -22t54.5 -19.5t54.5 -16.5t57.5 -16q369 -102 369 -334q0 -89 -45 -158t-119 -110q151 -83 151 -285q0 -147 -120.5 -247 t-305.5 -101q-155 1 -275 71.5t-179 192.5zM291 584q0 -49 23 -88.5t57.5 -64.5t83.5 -47.5t92.5 -35t93.5 -29t78 -28.5q68 25 114 80t46 127q0 48 -21.5 86.5t-54 63t-79.5 46.5t-88 34.5t-90.5 28.5t-76.5 27q-76 -21 -127 -74.5t-51 -125.5z" />
<glyph unicode="&#xa8;" horiz-adv-x="772" d="M100 1358q0 41 26.5 66.5t68.5 25.5q41 0 67.5 -25.5t26.5 -66.5t-26.5 -66.5t-67.5 -25.5q-42 0 -68.5 25.5t-26.5 66.5zM494 1358q0 41 26.5 66.5t67.5 25.5q43 0 68.5 -25.5t25.5 -66.5t-25.5 -66.5t-68.5 -25.5q-41 0 -67.5 25.5t-26.5 66.5z" />
<glyph unicode="&#xa9;" horiz-adv-x="1685" d="M115 715q0 -150 58 -287t155.5 -235.5t232 -157t281.5 -58.5t281.5 58.5t232 157t155.5 235.5t58 287q0 200 -98 370.5t-265.5 269.5t-363.5 99t-363.5 -99t-265.5 -269.5t-98 -370.5zM225 715q0 171 82.5 315.5t224.5 228.5t310 84q126 -1 240.5 -51t196.5 -134.5 t130 -200t47 -242.5q0 -128 -48 -244.5t-130 -200t-196 -133t-240 -49.5q-168 0 -310 83.5t-224.5 228t-82.5 315.5zM451 721q0 81 24 150.5t63.5 117.5t91 82t106.5 50t110 16q118 0 221 -62v-131h-6q-45 38 -91.5 56t-111.5 18q-50 0 -98.5 -18t-89.5 -52.5t-66.5 -93.5 t-25.5 -133t25.5 -133.5t66.5 -95.5t90 -55t100 -19q69 0 113.5 17t87.5 52l6 -4v-123q-95 -59 -217 -59q-56 0 -112 16.5t-108 51t-91.5 83t-63.5 118.5t-24 151z" />
<glyph unicode="&#xab;" horiz-adv-x="1157" d="M94 573v109l395 313v-127l-307 -239l307 -242v-125zM643 573v109l393 313v-127l-305 -239l305 -242v-125z" />
<glyph unicode="&#xac;" horiz-adv-x="1079" d="M94 676v117h889v-539h-115v422h-774z" />
<glyph unicode="&#xad;" horiz-adv-x="804" d="M94 573v117h615v-117h-615z" />
<glyph unicode="&#xae;" horiz-adv-x="1685" d="M115 715q0 -150 58 -287t155.5 -235.5t232 -157t281.5 -58.5t281.5 58.5t232 157t155.5 235.5t58 287q0 200 -98 370.5t-265.5 269.5t-363.5 99t-363.5 -99t-265.5 -269.5t-98 -370.5zM225 715q0 171 82.5 315.5t224.5 228.5t310 84q126 -1 240.5 -51t196.5 -134.5 t130 -200t47 -242.5q0 -128 -48 -244.5t-130 -200t-196 -133t-240 -49.5q-168 0 -310 83.5t-224.5 228t-82.5 315.5zM592 322v817h278q127 0 201 -61t74 -179q0 -112 -64 -167.5t-172 -65.5h-71l313 -344h-137l-312 364v-364h-110zM702 758h146q30 0 53.5 2.5t49 11t42.5 23 t28 40.5t11 62q0 80 -46.5 109.5t-137.5 29.5h-146v-278z" />
<glyph unicode="&#xaf;" horiz-adv-x="909" d="M152 1253v115h608v-115h-608z" />
<glyph unicode="&#xb0;" horiz-adv-x="692" d="M94 1204q0 101 74.5 175.5t177.5 74.5t177.5 -74.5t74.5 -175.5q0 -103 -74.5 -177.5t-177.5 -74.5t-177.5 74.5t-74.5 177.5zM190 1204q0 -66 45.5 -110.5t110.5 -44.5t109.5 44.5t44.5 110.5q0 64 -45 109t-109 45q-65 0 -110.5 -45t-45.5 -109z" />
<glyph unicode="&#xb1;" horiz-adv-x="1079" d="M94 160v114h889v-114h-889zM94 872v115h385v387h119v-387h385v-115h-385v-385h-119v385h-385z" />
<glyph unicode="&#xb4;" horiz-adv-x="628" d="M143 1188l187 293h151l-211 -293h-127z" />
<glyph unicode="&#xb6;" horiz-adv-x="1150" d="M78 1040q0 187 130.5 290.5t360.5 103.5h400v-1817h-109v1706h-180v-1706h-111v1001q-221 0 -356 109.5t-135 312.5z" />
<glyph unicode="&#xb7;" horiz-adv-x="397" d="M100 719q0 43 27 69.5t70 26.5q42 0 69 -27t27 -69q0 -41 -27.5 -67.5t-68.5 -26.5q-43 0 -70 26.5t-27 67.5z" />
<glyph unicode="&#xb8;" horiz-adv-x="509" d="M115 -291q44 -47 102 -47q48 0 77.5 23.5t29.5 64.5q0 44 -31.5 69t-79.5 25h-51l59 158h88l-41 -96q59 -2 103.5 -45.5t44.5 -106.5q0 -69 -50.5 -119.5t-132.5 -50.5q-68 0 -118 37v88z" />
<glyph unicode="&#xbb;" horiz-adv-x="1148" d="M121 262v125l307 242l-307 239v127l395 -313v-109zM662 262v125l307 242l-307 239v127l393 -313v-109z" />
<glyph unicode="&#xbc;" horiz-adv-x="1490" d="M57 1116v127l246 191h88v-807h-108v673l-222 -184h-4zM117 0l1153 1434h114l-1151 -1434h-116zM846 170v109l354 528h121v-543h106v-94h-106v-170h-109v170h-366zM944 264h275l2 412z" />
<glyph unicode="&#xbd;" horiz-adv-x="1564" d="M55 1116v127l246 191h88v-807h-108v673l-222 -184h-4zM102 0l1151 1434h117l-1151 -1434h-117zM981 737q50 44 100.5 66t118.5 22q105 0 177.5 -63t72.5 -172q0 -33 -9 -68t-22 -64t-37.5 -65t-44 -60.5t-54 -62t-55.5 -58t-60.5 -59.5t-57.5 -57h363v-94h-490v100 q23 23 68.5 68t66.5 66t57.5 59t54 59.5t41.5 53.5t35 55t19 49.5t8 50.5q1 72 -42.5 114t-114.5 42q-55 0 -104 -29.5t-85 -75.5h-4z" />
<glyph unicode="&#xbe;" horiz-adv-x="1511" d="M100 688v115h4q83 -96 207 -96q75 0 124.5 37.5t49.5 101.5q0 73 -56.5 112t-145.5 39h-41v88h41q76 0 129 35t53 97q0 65 -47 100t-117 35q-113 0 -188 -84l-4 2v104q92 74 213 74q108 0 178.5 -56t70.5 -159q0 -75 -44.5 -123t-110.5 -63q80 -14 129 -70.5t49 -145.5 q0 -104 -75.5 -162.5t-196.5 -58.5q-135 0 -222 78zM178 0l1153 1434h115l-1151 -1434h-117zM823 170v109l355 528h120v-543h107v-94h-107v-170h-108v170h-367zM922 264h274l2 412z" />
<glyph unicode="&#xbf;" horiz-adv-x="921" d="M111 -43q0 66 18 121t47 93.5t64 73t70 67.5t65 68t49.5 83t21.5 104v90h123v-102q-3 -66 -22.5 -122t-48.5 -94.5t-63.5 -72t-68.5 -64.5t-61.5 -63.5t-45 -75.5t-17.5 -94q0 -98 67 -163t164 -68q187 -3 289 192h2l108 -73q-135 -242 -399 -242q-162 1 -262 101 t-100 241zM393 989q0 45 29 74t74 29t74.5 -29t29.5 -74t-29.5 -74.5t-74.5 -29.5q-44 0 -73.5 29.5t-29.5 74.5z" />
<glyph unicode="&#xc0;" horiz-adv-x="1439" d="M92 0l547 1434h166l543 -1434h-142l-159 430h-656l-162 -430h-137zM434 547h567l-282 760zM440 1790h135l191 -240h-115z" />
<glyph unicode="&#xc1;" horiz-adv-x="1439" d="M92 0l547 1434h166l543 -1434h-142l-159 430h-656l-162 -430h-137zM434 547h567l-282 760zM651 1550l180 240h156l-203 -240h-133z" />
<glyph unicode="&#xc2;" horiz-adv-x="1439" d="M92 0l547 1434h166l543 -1434h-142l-159 430h-656l-162 -430h-137zM408 1556l227 240h149l232 -240h-139l-166 166l-164 -166h-139zM434 547h567l-282 760z" />
<glyph unicode="&#xc3;" horiz-adv-x="1439" d="M92 0l547 1434h166l543 -1434h-142l-159 430h-656l-162 -430h-137zM418 1610v108q85 76 166 76q55 0 101.5 -23t88 -46t82.5 -23q78 0 152 78v-109q-81 -72 -158 -72q-39 0 -76 14.5t-61 32t-59.5 32t-71.5 14.5q-82 0 -164 -82zM434 547h567l-282 760z" />
<glyph unicode="&#xc4;" horiz-adv-x="1439" d="M92 0l547 1434h166l543 -1434h-142l-159 430h-656l-162 -430h-137zM434 547h567l-282 760zM436 1663q0 41 26.5 66.5t67.5 25.5t67 -25.5t26 -66.5t-26 -66.5t-67 -25.5t-67.5 25.5t-26.5 66.5zM829 1663q0 41 26.5 66.5t68.5 25.5q41 0 67.5 -25.5t26.5 -66.5 t-26.5 -66.5t-67.5 -25.5q-42 0 -68.5 25.5t-26.5 66.5z" />
<glyph unicode="&#xc5;" horiz-adv-x="1439" d="M92 0l547 1434h166l543 -1434h-142l-159 430h-656l-162 -430h-137zM434 547h567l-282 760zM537 1696q0 72 51 120t127 48q77 0 125.5 -47.5t48.5 -120.5t-48.5 -120.5t-125.5 -47.5q-76 0 -127 48t-51 120zM618 1696q0 -39 27.5 -68t69.5 -29q41 0 67.5 28.5t26.5 68.5 q0 39 -26 66.5t-68 27.5t-69.5 -27.5t-27.5 -66.5z" />
<glyph unicode="&#xc6;" horiz-adv-x="1988" d="M43 0l926 1434h823v-119h-674l74 -524h580v-121h-564l78 -551h565v-119h-680l-55 395h-670l-253 -395h-150zM516 506h584l-103 749z" />
<glyph unicode="&#xc7;" horiz-adv-x="1439" d="M139 717q0 167 60.5 308t162 234.5t233.5 146t277 52.5q248 0 418 -125v-149l-4 -2q-92 79 -187.5 115t-224.5 36q-117 0 -226 -44t-192.5 -122t-133.5 -195.5t-50 -254.5t50 -254t133.5 -195.5t192.5 -123t226 -44.5q130 0 221.5 33.5t186.5 114.5l2 -2v-150 q-161 -121 -405 -121l-29 -69q57 -2 101 -45.5t44 -106.5q0 -69 -50 -119.5t-132 -50.5q-69 0 -119 37v88q44 -47 105 -47q46 0 75 23.5t29 64.5q0 44 -31 69t-79 25h-50l52 136q-133 13 -251.5 70.5t-208.5 150.5t-143 227t-53 289z" />
<glyph unicode="&#xc8;" horiz-adv-x="1208" d="M236 0v1434h811v-119h-682v-524h643v-119h-643v-553h682v-119h-811zM418 1790h135l190 -240h-112z" />
<glyph unicode="&#xc9;" horiz-adv-x="1208" d="M236 0v1434h811v-119h-682v-524h643v-119h-643v-553h682v-119h-811zM535 1550l180 240h155l-202 -240h-133z" />
<glyph unicode="&#xca;" horiz-adv-x="1208" d="M236 0v1434h811v-119h-682v-524h643v-119h-643v-553h682v-119h-811zM332 1548l227 240h148l233 -240h-139l-166 166l-164 -166h-139z" />
<glyph unicode="&#xcb;" horiz-adv-x="1208" d="M236 0v1434h811v-119h-682v-524h643v-119h-643v-553h682v-119h-811zM356 1663q0 41 27 66.5t70 25.5q41 0 66.5 -25.5t25.5 -66.5t-25.5 -66.5t-66.5 -25.5q-43 0 -70 25.5t-27 66.5zM752 1663q0 41 26.5 66.5t67.5 25.5t66.5 -25.5t25.5 -66.5t-25.5 -66.5t-66.5 -25.5 t-67.5 25.5t-26.5 66.5z" />
<glyph unicode="&#xcc;" horiz-adv-x="600" d="M35 1790h135l190 -240h-112zM236 0v1434h129v-1434h-129z" />
<glyph unicode="&#xcd;" horiz-adv-x="600" d="M221 1550l178 240h156l-201 -240h-133zM236 0v1434h129v-1434h-129z" />
<glyph unicode="&#xce;" horiz-adv-x="600" d="M-12 1548l227 240h150l231 -240h-139l-164 166l-166 -166h-139zM238 0v1434h129v-1434h-129z" />
<glyph unicode="&#xcf;" horiz-adv-x="600" d="M12 1663q0 41 26.5 66.5t67.5 25.5q42 0 68.5 -25.5t26.5 -66.5t-26.5 -66.5t-68.5 -25.5q-41 0 -67.5 25.5t-26.5 66.5zM236 0v1434h129v-1434h-129zM406 1663q0 41 26.5 66.5t67.5 25.5q43 0 68.5 -25.5t25.5 -66.5t-25.5 -66.5t-68.5 -25.5q-41 0 -67.5 25.5 t-26.5 66.5z" />
<glyph unicode="&#xd0;" horiz-adv-x="1591" d="M96 684v115h166v635h453q156 0 290.5 -47.5t235 -136.5t158 -226.5t57.5 -306.5q0 -170 -57.5 -307.5t-158 -226t-235 -136t-290.5 -47.5h-453v684h-166zM391 115h309q131 0 243 39t197 112.5t133 189t48 259.5q0 145 -47 260t-131 189.5t-196.5 113.5t-246.5 39h-309 v-518h354v-115h-354v-569z" />
<glyph unicode="&#xd1;" horiz-adv-x="1517" d="M236 0v1434h145l770 -1217v1217h131v-1434h-145l-772 1217v-1217h-129zM471 1610v108q85 76 166 76q55 0 101.5 -23t88 -46t82.5 -23q78 0 152 78v-109q-81 -72 -158 -72q-39 0 -76 14.5t-61 32t-59.5 32t-71.5 14.5q-82 0 -164 -82z" />
<glyph unicode="&#xd2;" horiz-adv-x="1691" d="M137 717q0 -135 37 -253t103 -206.5t155 -153t195 -97t221 -32.5q143 0 271.5 52t225.5 145.5t154 235t57 309.5q0 167 -57 308t-154 234.5t-225.5 146t-271.5 52.5q-115 0 -221 -33t-195 -97t-155 -152.5t-103 -206.5t-37 -252zM272 717q0 138 47 255.5t126 195.5 t183 121.5t218 43.5q92 0 177.5 -27.5t157.5 -80.5t126 -127t84 -172t30 -209q0 -140 -46.5 -257.5t-126 -195.5t-183.5 -121t-219 -43q-114 0 -218 43.5t-183 121.5t-126 195.5t-47 256.5zM610 1790h135l191 -240h-113z" />
<glyph unicode="&#xd3;" horiz-adv-x="1691" d="M137 717q0 -135 37 -253t103 -206.5t155 -153t195 -97t221 -32.5q143 0 271.5 52t225.5 145.5t154 235t57 309.5q0 167 -57 308t-154 234.5t-225.5 146t-271.5 52.5q-115 0 -221 -33t-195 -97t-155 -152.5t-103 -206.5t-37 -252zM272 717q0 138 47 255.5t126 195.5 t183 121.5t218 43.5q92 0 177.5 -27.5t157.5 -80.5t126 -127t84 -172t30 -209q0 -140 -46.5 -257.5t-126 -195.5t-183.5 -121t-219 -43q-114 0 -218 43.5t-183 121.5t-126 195.5t-47 256.5zM719 1550l180 240h156l-203 -240h-133z" />
<glyph unicode="&#xd4;" horiz-adv-x="1691" d="M137 717q0 -135 37 -253t103 -206.5t155 -153t195 -97t221 -32.5q143 0 271.5 52t225.5 145.5t154 235t57 309.5q0 167 -57 308t-154 234.5t-225.5 146t-271.5 52.5q-115 0 -221 -33t-195 -97t-155 -152.5t-103 -206.5t-37 -252zM272 717q0 138 47 255.5t126 195.5 t183 121.5t218 43.5q92 0 177.5 -27.5t157.5 -80.5t126 -127t84 -172t30 -209q0 -140 -46.5 -257.5t-126 -195.5t-183.5 -121t-219 -43q-114 0 -218 43.5t-183 121.5t-126 195.5t-47 256.5zM528 1554l228 240h149l232 -240h-140l-163 166l-166 -166h-140z" />
<glyph unicode="&#xd5;" horiz-adv-x="1665" d="M137 717q0 -135 37 -253t103 -206.5t155 -153t195 -97t221 -32.5q143 0 271.5 52t225.5 145.5t154 235t57 309.5q0 167 -57 308t-154 234.5t-225.5 146t-271.5 52.5q-115 0 -221 -33t-195 -97t-155 -152.5t-103 -206.5t-37 -252zM272 717q0 138 47 255.5t126 195.5 t183 121.5t218 43.5q92 0 177.5 -27.5t157.5 -80.5t126 -127t84 -172t30 -209q0 -140 -46.5 -257.5t-126 -195.5t-183.5 -121t-219 -43q-114 0 -218 43.5t-183 121.5t-126 195.5t-47 256.5zM545 1610v108q85 76 166 76q43 0 82 -14.5t64 -31.5t59 -31.5t67 -14.5 q74 0 152 78v-109q-81 -72 -158 -72q-39 0 -76 14.5t-61 32t-59.5 32t-71.5 14.5q-86 0 -164 -82z" />
<glyph unicode="&#xd6;" horiz-adv-x="1691" d="M137 717q0 -135 37 -253t103 -206.5t155 -153t195 -97t221 -32.5q143 0 271.5 52t225.5 145.5t154 235t57 309.5q0 167 -57 308t-154 234.5t-225.5 146t-271.5 52.5q-115 0 -221 -33t-195 -97t-155 -152.5t-103 -206.5t-37 -252zM272 717q0 138 47 255.5t126 195.5 t183 121.5t218 43.5q92 0 177.5 -27.5t157.5 -80.5t126 -127t84 -172t30 -209q0 -140 -46.5 -257.5t-126 -195.5t-183.5 -121t-219 -43q-114 0 -218 43.5t-183 121.5t-126 195.5t-47 256.5zM561 1663q0 41 26.5 66.5t67.5 25.5q42 0 68.5 -25.5t26.5 -66.5t-26.5 -66.5 t-68.5 -25.5q-41 0 -67.5 25.5t-26.5 66.5zM954 1663q0 41 26.5 66.5t68.5 25.5q43 0 68.5 -25.5t25.5 -66.5t-25.5 -66.5t-68.5 -25.5q-42 0 -68.5 25.5t-26.5 66.5z" />
<glyph unicode="&#xd7;" horiz-adv-x="1079" d="M186 465l273 274l-271 271l82 82l271 -271l272 273l86 -84l-272 -275l270 -270l-82 -82l-270 270l-273 -272z" />
<glyph unicode="&#xd8;" horiz-adv-x="1716" d="M102 -35l238 256q-170 200 -170 496q0 167 57.5 308t155 234.5t226.5 146t272 52.5q261 0 456 -162l156 168h141l-223 -239q178 -204 178 -508q0 -168 -56.5 -309.5t-153.5 -235t-225.5 -145.5t-272.5 -52q-132 0 -253 44.5t-216 127.5l-168 -182h-142zM305 717 q0 -236 127 -398l815 881q-155 133 -366 133q-114 0 -218.5 -43.5t-184 -121.5t-126.5 -195.5t-47 -255.5zM502 244q77 -69 175 -106.5t204 -37.5q115 0 219 43t182.5 121t125 195.5t46.5 257.5q0 243 -135 407z" />
<glyph unicode="&#xd9;" horiz-adv-x="1460" d="M209 594v840h129v-832q0 -242 103 -373t290 -131t289 131t102 373v832h131v-840q0 -299 -142 -459t-380 -160t-380 160t-142 459zM500 1790h135l190 -240h-112z" />
<glyph unicode="&#xda;" horiz-adv-x="1460" d="M209 594v840h129v-832q0 -242 103 -373t290 -131t289 131t102 373v832h131v-840q0 -299 -142 -459t-380 -160t-380 160t-142 459zM606 1550l180 240h156l-203 -240h-133z" />
<glyph unicode="&#xdb;" horiz-adv-x="1460" d="M209 594v840h129v-832q0 -242 103 -373t290 -131t289 131t102 373v832h131v-840q0 -299 -142 -459t-380 -160t-380 160t-142 459zM416 1548l227 240h148l233 -240h-139l-166 166l-164 -166h-139z" />
<glyph unicode="&#xdc;" horiz-adv-x="1460" d="M209 594v840h129v-832q0 -242 103 -373t290 -131t289 131t102 373v832h131v-840q0 -299 -142 -459t-380 -160t-380 160t-142 459zM444 1663q0 41 27 66.5t70 25.5q41 0 66.5 -25.5t25.5 -66.5t-25.5 -66.5t-66.5 -25.5q-43 0 -70 25.5t-27 66.5zM840 1663q0 41 26.5 66.5 t67.5 25.5t66.5 -25.5t25.5 -66.5t-25.5 -66.5t-66.5 -25.5t-67.5 25.5t-26.5 66.5z" />
<glyph unicode="&#xdd;" horiz-adv-x="1189" d="M41 1434h154l401 -705l405 705h148l-490 -832v-602h-129v602zM479 1550l180 240h156l-203 -240h-133z" />
<glyph unicode="&#xde;" horiz-adv-x="1298" d="M238 0v1434h137v-265h317q244 0 375 -101t131 -304q0 -205 -132 -311.5t-374 -106.5h-319v-346h-135zM373 463h295q200 0 300.5 70.5t100.5 226.5q0 157 -100 226t-301 69h-295v-592z" />
<glyph unicode="&#xdf;" horiz-adv-x="1269" d="M225 0h129l-2 1014q0 67 16 123.5t50 103.5t93.5 73.5t139.5 26.5q128 0 209.5 -76t81.5 -198q0 -117 -84.5 -201t-202.5 -84v-104q85 0 158 -31.5t120.5 -95.5t47.5 -148q0 -146 -88 -222.5t-248 -76.5q-31 0 -84 11v-115q44 -10 107 -10q207 0 326.5 101t119.5 302 q0 137 -80.5 224.5t-193.5 119.5q98 44 162.5 134.5t64.5 207.5q0 119 -58 206.5t-150 130t-204 42.5q-108 0 -192.5 -34t-135.5 -93.5t-76.5 -134t-25.5 -160.5v-1036z" />
<glyph unicode="&#xe0;" d="M182 848q66 116 167 177.5t226 61.5q178 0 275.5 -96.5t97.5 -283.5v-707h-119v182q-40 -88 -124 -144t-203 -56q-143 0 -230.5 80t-87.5 202q0 79 27 137.5t79.5 95.5t111.5 59t143 40q65 14 109.5 27t85 31.5t61 43.5t20.5 56q0 91 -65 153t-183 62q-94 0 -169.5 -53.5 t-120.5 -149.5zM317 272q0 -81 57.5 -129.5t143.5 -48.5q74 0 134 28t95.5 74t54.5 100.5t19 111.5v180q-86 -64 -258 -101q-60 -13 -101.5 -28.5t-76 -40t-51.5 -61t-17 -85.5zM338 1481h149l189 -293h-129z" />
<glyph unicode="&#xe1;" d="M182 848q66 116 167 177.5t226 61.5q178 0 275.5 -96.5t97.5 -283.5v-707h-119v182q-40 -88 -124 -144t-203 -56q-143 0 -230.5 80t-87.5 202q0 79 27 137.5t79.5 95.5t111.5 59t143 40q65 14 109.5 27t85 31.5t61 43.5t20.5 56q0 91 -65 153t-183 62q-94 0 -169.5 -53.5 t-120.5 -149.5zM317 272q0 -81 57.5 -129.5t143.5 -48.5q74 0 134 28t95.5 74t54.5 100.5t19 111.5v180q-86 -64 -258 -101q-60 -13 -101.5 -28.5t-76 -40t-51.5 -61t-17 -85.5zM498 1188l188 293h150l-209 -293h-129z" />
<glyph unicode="&#xe2;" d="M182 848q66 116 167 177.5t226 61.5q178 0 275.5 -96.5t97.5 -283.5v-707h-119v182q-40 -88 -124 -144t-203 -56q-143 0 -230.5 80t-87.5 202q0 79 27 137.5t79.5 95.5t111.5 59t143 40q65 14 109.5 27t85 31.5t61 43.5t20.5 56q0 91 -65 153t-183 62q-94 0 -169.5 -53.5 t-120.5 -149.5zM287 1194l221 293h137l225 -293h-133l-157 201l-160 -201h-133zM317 272q0 -81 57.5 -129.5t143.5 -48.5q74 0 134 28t95.5 74t54.5 100.5t19 111.5v180q-86 -64 -258 -101q-60 -13 -101.5 -28.5t-76 -40t-51.5 -61t-17 -85.5z" />
<glyph unicode="&#xe3;" d="M182 848q66 116 167 177.5t226 61.5q178 0 275.5 -96.5t97.5 -283.5v-707h-119v182q-40 -88 -124 -144t-203 -56q-143 0 -230.5 80t-87.5 202q0 79 27 137.5t79.5 95.5t111.5 59t143 40q65 14 109.5 27t85 31.5t61 43.5t20.5 56q0 91 -65 153t-183 62q-94 0 -169.5 -53.5 t-120.5 -149.5zM268 1255v109q82 74 166 74q54 0 101 -23t89 -46t83 -23q72 0 151 79v-108q-81 -72 -158 -72q-49 0 -93 22.5t-87 45t-88 22.5q-88 0 -164 -80zM317 272q0 -81 57.5 -129.5t143.5 -48.5q74 0 134 28t95.5 74t54.5 100.5t19 111.5v180q-86 -64 -258 -101 q-60 -13 -101.5 -28.5t-76 -40t-51.5 -61t-17 -85.5z" />
<glyph unicode="&#xe4;" d="M182 848q66 116 167 177.5t226 61.5q178 0 275.5 -96.5t97.5 -283.5v-707h-119v182q-40 -88 -124 -144t-203 -56q-143 0 -230.5 80t-87.5 202q0 79 27 137.5t79.5 95.5t111.5 59t143 40q65 14 109.5 27t85 31.5t61 43.5t20.5 56q0 91 -65 153t-183 62q-94 0 -169.5 -53.5 t-120.5 -149.5zM293 1358q0 41 26.5 66.5t67.5 25.5t66.5 -25.5t25.5 -66.5t-25.5 -66.5t-66.5 -25.5t-67.5 25.5t-26.5 66.5zM317 272q0 -81 57.5 -129.5t143.5 -48.5q74 0 134 28t95.5 74t54.5 100.5t19 111.5v180q-86 -64 -258 -101q-60 -13 -101.5 -28.5t-76 -40 t-51.5 -61t-17 -85.5zM686 1358q0 41 26.5 66.5t67.5 25.5t67.5 -25.5t26.5 -66.5t-26.5 -66.5t-67.5 -25.5t-67.5 25.5t-26.5 66.5z" />
<glyph unicode="&#xe5;" d="M182 848q66 116 167 177.5t226 61.5q178 0 275.5 -96.5t97.5 -283.5v-707h-119v182q-40 -88 -124 -144t-203 -56q-143 0 -230.5 80t-87.5 202q0 79 27 137.5t79.5 95.5t111.5 59t143 40q65 14 109.5 27t85 31.5t61 43.5t20.5 56q0 91 -65 153t-183 62q-94 0 -169.5 -53.5 t-120.5 -149.5zM317 272q0 -81 57.5 -129.5t143.5 -48.5q74 0 134 28t95.5 74t54.5 100.5t19 111.5v180q-86 -64 -258 -101q-60 -13 -101.5 -28.5t-76 -40t-51.5 -61t-17 -85.5zM408 1339q0 78 54.5 128.5t135.5 50.5q79 0 132.5 -50.5t53.5 -128.5t-53.5 -128t-132.5 -50 q-81 0 -135.5 50t-54.5 128zM496 1339q0 -45 28.5 -73.5t73.5 -28.5t71.5 28.5t26.5 73.5t-26.5 74t-71.5 29t-73.5 -29t-28.5 -74z" />
<glyph unicode="&#xe6;" horiz-adv-x="1861" d="M176 872q153 215 393 215q130 0 218 -65.5t122 -187.5q58 118 157.5 185.5t221.5 67.5q138 0 241.5 -69t155.5 -182t52 -252v-62h-789q2 -112 33 -197t83.5 -136t118.5 -76t144 -25q197 0 303 164h8l78 -86q-71 -91 -165 -141t-230 -50q-147 0 -262.5 78.5t-159.5 214.5 q-35 -136 -136 -211t-226 -75q-163 0 -261 88.5t-98 224.5q0 163 129 249.5t357 86.5l167 2v59q0 125 -71 203t-193 78q-93 0 -173.5 -49.5t-125.5 -137.5h-6zM305 295q0 -92 65.5 -148.5t176.5 -56.5q127 0 205.5 91.5t78.5 215.5v123h-167q-359 -3 -359 -225zM950 631h658 q-1 87 -35 163t-106.5 127.5t-170.5 51.5q-142 0 -238 -96t-108 -246z" />
<glyph unicode="&#xe7;" horiz-adv-x="1064" d="M129 535q0 134 45.5 242.5t119 174t160 100.5t175.5 35q93 0 158 -18.5t131 -62.5v-146h-7q-56 52 -115.5 77.5t-150.5 25.5q-54 0 -108 -16t-105 -51t-90 -84t-62.5 -121t-23.5 -156q0 -102 36 -187t93.5 -137t125 -80.5t134.5 -28.5q93 0 153 26t113 75l7 -2v-146 q-106 -80 -283 -80h-2l-29 -69q57 -2 101.5 -45.5t44.5 -106.5q0 -69 -50.5 -119.5t-132.5 -50.5q-68 0 -118 37v88q44 -47 104 -47q46 0 75 23.5t29 64.5q0 44 -31 69t-79 25h-49l51 140q-82 16 -155.5 58.5t-133.5 109.5t-95.5 166t-35.5 217z" />
<glyph unicode="&#xe8;" horiz-adv-x="1173" d="M131 551q0 233 137.5 384.5t333.5 151.5q104 0 189 -39t140.5 -106t85.5 -154.5t32 -185.5v-84h-791q3 -202 108 -313t261 -111q115 0 188 48.5t127 129.5l98 -84q-67 -98 -169.5 -155.5t-235.5 -57.5q-106 0 -197 37.5t-159.5 108t-108 181.5t-39.5 249zM262 629h664 q-3 88 -38.5 163t-109.5 126t-174 51q-139 0 -233.5 -96.5t-108.5 -243.5zM358 1481h150l188 -293h-129z" />
<glyph unicode="&#xe9;" horiz-adv-x="1173" d="M131 551q0 233 137.5 384.5t333.5 151.5q104 0 189 -39t140.5 -106t85.5 -154.5t32 -185.5v-84h-791q3 -202 108 -313t261 -111q115 0 188 48.5t127 129.5l98 -84q-67 -98 -169.5 -155.5t-235.5 -57.5q-106 0 -197 37.5t-159.5 108t-108 181.5t-39.5 249zM262 629h664 q-3 88 -38.5 163t-109.5 126t-174 51q-139 0 -233.5 -96.5t-108.5 -243.5zM512 1188l188 293h150l-209 -293h-129z" />
<glyph unicode="&#xea;" horiz-adv-x="1173" d="M131 551q0 233 137.5 384.5t333.5 151.5q104 0 189 -39t140.5 -106t85.5 -154.5t32 -185.5v-84h-791q3 -202 108 -313t261 -111q115 0 188 48.5t127 129.5l98 -84q-67 -98 -169.5 -155.5t-235.5 -57.5q-106 0 -197 37.5t-159.5 108t-108 181.5t-39.5 249zM262 629h664 q-3 88 -38.5 163t-109.5 126t-174 51q-139 0 -233.5 -96.5t-108.5 -243.5zM311 1194l221 293h138l225 -293h-133l-158 201l-158 -201h-135z" />
<glyph unicode="&#xeb;" horiz-adv-x="1173" d="M131 551q0 233 137.5 384.5t333.5 151.5q104 0 189 -39t140.5 -106t85.5 -154.5t32 -185.5v-84h-791q3 -202 108 -313t261 -111q115 0 188 48.5t127 129.5l98 -84q-67 -98 -169.5 -155.5t-235.5 -57.5q-106 0 -197 37.5t-159.5 108t-108 181.5t-39.5 249zM262 629h664 q-3 88 -38.5 163t-109.5 126t-174 51q-139 0 -233.5 -96.5t-108.5 -243.5zM309 1358q0 41 26.5 66.5t67.5 25.5q43 0 69 -25.5t26 -66.5t-26 -66.5t-69 -25.5q-41 0 -67.5 25.5t-26.5 66.5zM702 1358q0 41 27 66.5t70 25.5q41 0 66.5 -25.5t25.5 -66.5t-25.5 -66.5 t-66.5 -25.5q-43 0 -70 25.5t-27 66.5z" />
<glyph unicode="&#xec;" horiz-adv-x="581" d="M59 1481h150l188 -293h-129zM225 0v1065h131v-1065h-131z" />
<glyph unicode="&#xed;" horiz-adv-x="581" d="M223 1188l189 293h149l-209 -293h-129zM225 0v1065h131v-1065h-131z" />
<glyph unicode="&#xee;" horiz-adv-x="581" d="M6 1194l219 293h140l223 -293h-131l-160 201l-158 -201h-133zM227 0v1065h131v-1065h-131z" />
<glyph unicode="&#xef;" horiz-adv-x="581" d="M39 1358q0 39 24.5 63.5t63.5 24.5q40 0 64 -24t24 -64t-24 -64t-64 -24q-39 0 -63.5 24.5t-24.5 63.5zM225 0v1065h131v-1065h-131zM360 1358q0 39 25.5 63.5t65.5 24.5q39 0 63.5 -24.5t24.5 -63.5t-24.5 -63.5t-63.5 -24.5q-40 0 -65.5 24.5t-25.5 63.5z" />
<glyph unicode="&#xf0;" horiz-adv-x="1312" d="M135 532q0 235 134 388t343 153q73 0 139.5 -21.5t123.5 -63t98 -109t57 -154.5q-25 328 -262 586l-420 -105v101l338 84q-73 67 -168 131v4h156q75 -53 133 -105l354 88v-102l-272 -68q272 -297 272 -714q0 -136 -32.5 -252.5t-95 -206t-163.5 -140.5t-229 -51 q-216 0 -361 158.5t-145 398.5zM254 532q0 -187 111 -312.5t276 -125.5q76 0 140 25.5t108 68.5t74.5 100.5t45 120t15.5 128.5q1 183 -113 303.5t-278 120.5q-162 0 -270.5 -120t-108.5 -309z" />
<glyph unicode="&#xf1;" horiz-adv-x="1243" d="M225 0v1065h117v-207q45 106 129 166.5t195 60.5q360 0 360 -440v-645h-131v614q0 182 -58.5 269.5t-185.5 87.5q-93 0 -162 -58.5t-102 -148t-33 -193.5v-571h-129zM315 1255v109q82 74 166 74q55 0 102 -23t88.5 -46t82.5 -23q76 0 151 79v-108q-81 -72 -157 -72 q-49 0 -93.5 22.5t-87.5 45t-88 22.5q-84 0 -164 -80z" />
<glyph unicode="&#xf2;" horiz-adv-x="1292" d="M131 530q0 129 42.5 236.5t114.5 176.5t164.5 106.5t194.5 37.5t194.5 -37.5t164.5 -106.5t114.5 -176.5t42.5 -236.5t-42.5 -236t-114.5 -175.5t-164.5 -106t-194.5 -37.5t-194.5 37.5t-164.5 106t-114.5 175.5t-42.5 236zM258 530q0 -198 112.5 -317t276.5 -119 t276.5 119t112.5 317q0 197 -113 319t-276 122t-276 -122t-113 -319zM414 1481h149l189 -293h-129z" />
<glyph unicode="&#xf3;" horiz-adv-x="1292" d="M131 530q0 129 42.5 236.5t114.5 176.5t164.5 106.5t194.5 37.5t194.5 -37.5t164.5 -106.5t114.5 -176.5t42.5 -236.5t-42.5 -236t-114.5 -175.5t-164.5 -106t-194.5 -37.5t-194.5 37.5t-164.5 106t-114.5 175.5t-42.5 236zM258 530q0 -198 112.5 -317t276.5 -119 t276.5 119t112.5 317q0 197 -113 319t-276 122t-276 -122t-113 -319zM561 1188l189 293h149l-209 -293h-129z" />
<glyph unicode="&#xf4;" horiz-adv-x="1292" d="M131 530q0 129 42.5 236.5t114.5 176.5t164.5 106.5t194.5 37.5t194.5 -37.5t164.5 -106.5t114.5 -176.5t42.5 -236.5t-42.5 -236t-114.5 -175.5t-164.5 -106t-194.5 -37.5t-194.5 37.5t-164.5 106t-114.5 175.5t-42.5 236zM258 530q0 -198 112.5 -317t276.5 -119 t276.5 119t112.5 317q0 197 -113 319t-276 122t-276 -122t-113 -319zM369 1194l219 295h139l223 -295h-131l-160 203l-157 -203h-133z" />
<glyph unicode="&#xf5;" horiz-adv-x="1292" d="M131 530q0 129 42.5 236.5t114.5 176.5t164.5 106.5t194.5 37.5t194.5 -37.5t164.5 -106.5t114.5 -176.5t42.5 -236.5t-42.5 -236t-114.5 -175.5t-164.5 -106t-194.5 -37.5t-194.5 37.5t-164.5 106t-114.5 175.5t-42.5 236zM258 530q0 -198 112.5 -317t276.5 -119 t276.5 119t112.5 317q0 197 -113 319t-276 122t-276 -122t-113 -319zM346 1255v109q82 74 166 74q55 0 101.5 -23t88 -46t82.5 -23q77 0 152 79v-108q-81 -72 -158 -72q-49 0 -93 22.5t-87 45t-88 22.5q-84 0 -164 -80z" />
<glyph unicode="&#xf6;" horiz-adv-x="1292" d="M131 530q0 129 42.5 236.5t114.5 176.5t164.5 106.5t194.5 37.5t194.5 -37.5t164.5 -106.5t114.5 -176.5t42.5 -236.5t-42.5 -236t-114.5 -175.5t-164.5 -106t-194.5 -37.5t-194.5 37.5t-164.5 106t-114.5 175.5t-42.5 236zM258 530q0 -198 112.5 -317t276.5 -119 t276.5 119t112.5 317q0 197 -113 319t-276 122t-276 -122t-113 -319zM365 1358q0 41 26.5 66.5t67.5 25.5t66.5 -25.5t25.5 -66.5t-25.5 -66.5t-66.5 -25.5t-67.5 25.5t-26.5 66.5zM758 1358q0 41 26.5 66.5t67.5 25.5t67.5 -25.5t26.5 -66.5t-26.5 -66.5t-67.5 -25.5 t-67.5 25.5t-26.5 66.5z" />
<glyph unicode="&#xf7;" horiz-adv-x="1079" d="M94 610v115h889v-115h-889zM442 309q0 41 28.5 67.5t68.5 26.5t68 -26.5t28 -67.5q0 -39 -28 -65.5t-68 -26.5t-68.5 26.5t-28.5 65.5zM442 1012q0 42 28 69t69 27q40 0 68 -27t28 -69q0 -39 -28 -65.5t-68 -26.5t-68.5 26.5t-28.5 65.5z" />
<glyph unicode="&#xf8;" horiz-adv-x="1292" d="M70 -90l194 235q-133 149 -133 385q0 129 42.5 236.5t114.5 176.5t164.5 106.5t194.5 37.5q176 0 309 -100l142 172h125l-197 -237q137 -153 137 -392q0 -129 -42.5 -236t-114.5 -175.5t-164.5 -106t-194.5 -37.5q-178 0 -311 103l-139 -168h-127zM258 530 q0 -166 86 -286l535 647q-104 80 -232 80q-163 0 -276 -122t-113 -319zM414 174q104 -80 233 -80q164 0 276.5 119t112.5 317q0 170 -90 291z" />
<glyph unicode="&#xf9;" horiz-adv-x="1243" d="M215 420v645h129v-614q0 -182 59 -269.5t187 -87.5q93 0 162 58.5t102 148t33 193.5v571h129v-1065h-117v207q-45 -107 -129.5 -168.5t-194.5 -61.5q-360 0 -360 443zM375 1481h149l189 -293h-129z" />
<glyph unicode="&#xfa;" horiz-adv-x="1243" d="M217 420v645h129v-614q0 -182 59 -269.5t185 -87.5q93 0 163 58.5t103 148t33 193.5v571h129v-1065h-119v207q-45 -107 -129 -168.5t-192 -61.5q-171 0 -266 106.5t-95 336.5zM520 1188l189 293h149l-209 -293h-129z" />
<glyph unicode="&#xfb;" horiz-adv-x="1243" d="M217 420v645h129v-614q0 -182 59 -269.5t185 -87.5q93 0 163 58.5t103 148t33 193.5v571h129v-1065h-119v207q-45 -107 -129 -168.5t-192 -61.5q-171 0 -266 106.5t-95 336.5zM332 1194l219 293h139l223 -293h-131l-159 201l-158 -201h-133z" />
<glyph unicode="&#xfc;" horiz-adv-x="1243" d="M215 420v645h129v-614q0 -182 59 -269.5t187 -87.5q93 0 162 58.5t102 148t33 193.5v571h129v-1065h-117v207q-45 -107 -129.5 -168.5t-194.5 -61.5q-360 0 -360 443zM326 1358q0 41 26.5 66.5t69.5 25.5q41 0 66.5 -25.5t25.5 -66.5t-25.5 -66.5t-66.5 -25.5 q-43 0 -69.5 25.5t-26.5 66.5zM721 1358q0 41 26.5 66.5t67.5 25.5t66.5 -25.5t25.5 -66.5t-25.5 -66.5t-66.5 -25.5t-67.5 25.5t-26.5 66.5z" />
<glyph unicode="&#xfd;" horiz-adv-x="1105" d="M94 1065h139l336 -774l336 774h139l-659 -1466h-133l252 553zM487 1188l189 293h149l-209 -293h-129z" />
<glyph unicode="&#xfe;" horiz-adv-x="1300" d="M227 -451v1885h129l2 -580q49 111 146 173.5t211 62.5q196 0 321 -154.5t125 -403.5q0 -158 -55.5 -284.5t-156 -198.5t-228.5 -72q-125 0 -220.5 62.5t-142.5 177.5v-668h-131zM354 535q0 -197 95.5 -322t246.5 -125q146 0 242 128t96 319q0 192 -92.5 318t-243.5 126 q-146 0 -245 -126t-99 -318z" />
<glyph unicode="&#xff;" horiz-adv-x="1105" d="M94 1065h139l336 -774l336 774h139l-659 -1466h-133l252 553zM283 1358q0 41 26.5 66.5t67.5 25.5t67.5 -25.5t26.5 -66.5t-26.5 -66.5t-67.5 -25.5t-67.5 25.5t-26.5 66.5zM676 1358q0 41 26.5 66.5t67.5 25.5q43 0 68.5 -25.5t25.5 -66.5t-25.5 -66.5t-68.5 -25.5 q-41 0 -67.5 25.5t-26.5 66.5z" />
<glyph unicode="&#x100;" horiz-adv-x="1439" d="M92 0l547 1434h166l543 -1434h-142l-159 430h-656l-162 -430h-137zM414 1604v114h608v-114h-608zM434 547h567l-282 760z" />
<glyph unicode="&#x101;" d="M182 848q66 116 167 177.5t226 61.5q178 0 275.5 -96.5t97.5 -283.5v-707h-119v182q-40 -88 -124 -144t-203 -56q-143 0 -230.5 80t-87.5 202q0 79 27 137.5t79.5 95.5t111.5 59t143 40q65 14 109.5 27t85 31.5t61 43.5t20.5 56q0 91 -65 153t-183 62q-94 0 -169.5 -53.5 t-120.5 -149.5zM262 1253v115h608v-115h-608zM317 272q0 -81 57.5 -129.5t143.5 -48.5q74 0 134 28t95.5 74t54.5 100.5t19 111.5v180q-86 -64 -258 -101q-60 -13 -101.5 -28.5t-76 -40t-51.5 -61t-17 -85.5z" />
<glyph unicode="&#x102;" horiz-adv-x="1439" d="M92 0l547 1434h166l543 -1434h-142l-159 430h-656l-162 -430h-137zM434 547h567l-282 760zM457 1790h98q3 -64 50 -109t114 -45q68 0 114.5 45t51.5 109h96q-5 -104 -77 -174t-185 -70q-112 0 -184.5 70t-77.5 174z" />
<glyph unicode="&#x103;" d="M182 848q66 116 167 177.5t226 61.5q178 0 275.5 -96.5t97.5 -283.5v-707h-119v182q-40 -88 -124 -144t-203 -56q-143 0 -230.5 80t-87.5 202q0 79 27 137.5t79.5 95.5t111.5 59t143 40q65 14 109.5 27t85 31.5t61 43.5t20.5 56q0 91 -65 153t-183 62q-94 0 -169.5 -53.5 t-120.5 -149.5zM303 1464h113q3 -82 43.5 -132t113.5 -50q71 0 112 50t46 132h113q-3 -122 -78.5 -203t-192.5 -81t-192 81t-78 203zM317 272q0 -81 57.5 -129.5t143.5 -48.5q74 0 134 28t95.5 74t54.5 100.5t19 111.5v180q-86 -64 -258 -101q-60 -13 -101.5 -28.5t-76 -40 t-51.5 -61t-17 -85.5z" />
<glyph unicode="&#x104;" horiz-adv-x="1439" d="M92 0l547 1434h166l543 -1434h-21q-68 -36 -114 -90.5t-46 -110.5q0 -96 119 -96q37 0 72 12v-92q-46 -14 -90 -14q-82 0 -140.5 45t-58.5 127q0 63 44.5 121.5t113.5 97.5h-21l-159 430h-656l-162 -430h-137zM434 547h567l-282 760z" />
<glyph unicode="&#x105;" d="M182 848q66 116 167 177.5t226 61.5q178 0 275.5 -96.5t97.5 -283.5v-707h-14l8 4l-88 -4h-25v182q-40 -88 -124 -144t-203 -56q-143 0 -230.5 80t-87.5 202q0 79 27 137.5t79.5 95.5t111.5 59t143 40q65 14 109.5 27t85 31.5t61 43.5t20.5 56q0 91 -65 153t-183 62 q-94 0 -169.5 -53.5t-120.5 -149.5zM317 272q0 -81 57.5 -129.5t143.5 -48.5q74 0 134 28t95.5 74t54.5 100.5t19 111.5v180q-86 -64 -258 -101q-60 -13 -101.5 -28.5t-76 -40t-51.5 -61t-17 -85.5zM700 -223q0 129 154 223h80q-66 -32 -112 -85t-46 -112q0 -55 37 -86.5 t94 -31.5q34 0 72 14v-68q-39 -14 -88 -14q-81 0 -136 40.5t-55 119.5z" />
<glyph unicode="&#x106;" horiz-adv-x="1439" d="M139 717q0 167 60.5 308t162 234.5t233.5 146t277 52.5q248 0 418 -125v-149l-4 -2q-92 79 -187.5 115t-224.5 36q-117 0 -226 -44t-192.5 -122t-133.5 -195.5t-50 -254.5t50 -254t133.5 -195.5t192.5 -123t226 -44.5q130 0 221.5 33.5t186.5 114.5l2 -2v-150 q-164 -121 -412 -121q-145 0 -277 52.5t-233.5 146.5t-162 235t-60.5 308zM743 1550l181 240h155l-202 -240h-134z" />
<glyph unicode="&#x107;" horiz-adv-x="1064" d="M129 535q0 134 45.5 242.5t119 174t160 100.5t175.5 35q93 0 158 -18.5t131 -62.5v-146h-7q-56 52 -115.5 77.5t-150.5 25.5q-54 0 -108 -16t-105 -51t-90 -84t-62.5 -121t-23.5 -156q0 -102 36 -187t93.5 -137t125 -80.5t134.5 -28.5q93 0 153 26t113 75l7 -2v-146 q-106 -80 -283 -80q-91 0 -179 36.5t-162 103.5t-119.5 177t-45.5 243zM526 1188l189 293h149l-209 -293h-129z" />
<glyph unicode="&#x108;" horiz-adv-x="1439" d="M139 717q0 167 60.5 308t162 234.5t233.5 146t277 52.5q248 0 418 -125v-149l-4 -2q-92 79 -187.5 115t-224.5 36q-117 0 -226 -44t-192.5 -122t-133.5 -195.5t-50 -254.5t50 -254t133.5 -195.5t192.5 -123t226 -44.5q130 0 221.5 33.5t186.5 114.5l2 -2v-150 q-164 -121 -412 -121q-145 0 -277 52.5t-233.5 146.5t-162 235t-60.5 308zM530 1556l228 240h147l232 -240h-138l-165 166l-166 -166h-138z" />
<glyph unicode="&#x109;" horiz-adv-x="1064" d="M129 535q0 134 45.5 242.5t119 174t160 100.5t175.5 35q93 0 158 -18.5t131 -62.5v-146h-7q-56 52 -115.5 77.5t-150.5 25.5q-54 0 -108 -16t-105 -51t-90 -84t-62.5 -121t-23.5 -156q0 -102 36 -187t93.5 -137t125 -80.5t134.5 -28.5q93 0 153 26t113 75l7 -2v-146 q-106 -80 -283 -80q-91 0 -179 36.5t-162 103.5t-119.5 177t-45.5 243zM313 1194l222 293h137l225 -293h-131l-160 201l-157 -201h-136z" />
<glyph unicode="&#x10a;" horiz-adv-x="1439" d="M139 717q0 167 60.5 308t162 234.5t233.5 146t277 52.5q248 0 418 -125v-149l-4 -2q-92 79 -187.5 115t-224.5 36q-117 0 -226 -44t-192.5 -122t-133.5 -195.5t-50 -254.5t50 -254t133.5 -195.5t192.5 -123t226 -44.5q130 0 221.5 33.5t186.5 114.5l2 -2v-150 q-164 -121 -412 -121q-145 0 -277 52.5t-233.5 146.5t-162 235t-60.5 308zM748 1663q0 49 33 80t83 31t82.5 -31t32.5 -80q0 -47 -32.5 -78t-82.5 -31t-83 31t-33 78z" />
<glyph unicode="&#x10b;" horiz-adv-x="1064" d="M129 535q0 134 45.5 242.5t119 174t160 100.5t175.5 35q93 0 158 -18.5t131 -62.5v-146h-7q-56 52 -115.5 77.5t-150.5 25.5q-54 0 -108 -16t-105 -51t-90 -84t-62.5 -121t-23.5 -156q0 -102 36 -187t93.5 -137t125 -80.5t134.5 -28.5q93 0 153 26t113 75l7 -2v-146 q-106 -80 -283 -80q-91 0 -179 36.5t-162 103.5t-119.5 177t-45.5 243zM512 1354q0 47 33.5 77.5t83.5 30.5t83 -30.5t33 -77.5q0 -49 -33 -80t-83 -31t-83.5 31t-33.5 80z" />
<glyph unicode="&#x10c;" horiz-adv-x="1439" d="M139 717q0 167 60.5 308t162 234.5t233.5 146t277 52.5q248 0 418 -125v-149l-4 -2q-92 79 -187.5 115t-224.5 36q-117 0 -226 -44t-192.5 -122t-133.5 -195.5t-50 -254.5t50 -254t133.5 -195.5t192.5 -123t226 -44.5q130 0 221.5 33.5t186.5 114.5l2 -2v-150 q-164 -121 -412 -121q-145 0 -277 52.5t-233.5 146.5t-162 235t-60.5 308zM512 1790h139l166 -166l164 166h139l-231 -240h-150z" />
<glyph unicode="&#x10d;" horiz-adv-x="1064" d="M129 535q0 134 45.5 242.5t119 174t160 100.5t175.5 35q93 0 158 -18.5t131 -62.5v-146h-7q-56 52 -115.5 77.5t-150.5 25.5q-54 0 -108 -16t-105 -51t-90 -84t-62.5 -121t-23.5 -156q0 -102 36 -187t93.5 -137t125 -80.5t134.5 -28.5q93 0 153 26t113 75l7 -2v-146 q-106 -80 -283 -80q-91 0 -179 36.5t-162 103.5t-119.5 177t-45.5 243zM319 1481h134l159 -203l158 203h133l-225 -293h-137z" />
<glyph unicode="&#x10e;" horiz-adv-x="1566" d="M236 0v1434h454q156 0 290.5 -47.5t234.5 -136.5t157.5 -226t57.5 -307q0 -137 -37 -253t-104 -200.5t-159.5 -144.5t-203.5 -89.5t-236 -29.5h-454zM324 1790h139l164 -166l166 166h139l-234 -240h-147zM365 119h309q132 0 244.5 38t197 111t132.5 188t48 259 q0 192 -82 329.5t-220.5 204t-319.5 66.5h-309v-1196z" />
<glyph unicode="&#x10f;" horiz-adv-x="1351" d="M139 532q0 157 56 283.5t157.5 199t229.5 72.5q123 0 218 -64t144 -181v674h129v-1516h-115l-2 229q-45 -116 -142.5 -185t-227.5 -69q-195 0 -321 154.5t-126 402.5zM266 528q0 -191 92.5 -317.5t243.5 -126.5q146 0 246 127.5t100 316.5q0 198 -96 322.5t-248 124.5 q-146 0 -242 -127.5t-96 -319.5zM1210 1077l19 436h112l-36 -436h-95z" />
<glyph unicode="&#x110;" horiz-adv-x="1591" d="M96 684v115h166v635h453q156 0 290.5 -47.5t235 -136.5t158 -226.5t57.5 -306.5q0 -170 -57.5 -307.5t-158 -226t-235 -136t-290.5 -47.5h-453v684h-166zM391 115h309q131 0 243 39t197 112.5t133 189t48 259.5q0 145 -47 260t-131 189.5t-196.5 113.5t-246.5 39h-309 v-518h354v-115h-354v-569z" />
<glyph unicode="&#x111;" horiz-adv-x="1302" d="M139 532q0 157 56 283.5t157.5 199t229.5 72.5q123 0 218 -64t144 -181v391h-301v98h301v185h129v-185h211v-98h-211v-1233h-115l-2 229q-45 -116 -142.5 -185t-227.5 -69q-195 0 -321 154.5t-126 402.5zM266 528q0 -191 92.5 -317.5t243.5 -126.5q146 0 246 127.5 t100 316.5q0 198 -96 322.5t-248 124.5q-146 0 -242 -127.5t-96 -319.5z" />
<glyph unicode="&#x112;" horiz-adv-x="1208" d="M236 0v1434h811v-119h-682v-524h643v-119h-643v-553h682v-119h-811zM334 1604v114h610v-114h-610z" />
<glyph unicode="&#x113;" horiz-adv-x="1173" d="M131 551q0 233 137.5 384.5t333.5 151.5q104 0 189 -39t140.5 -106t85.5 -154.5t32 -185.5v-84h-791q3 -202 108 -313t261 -111q115 0 188 48.5t127 129.5l98 -84q-67 -98 -169.5 -155.5t-235.5 -57.5q-106 0 -197 37.5t-159.5 108t-108 181.5t-39.5 249zM262 629h664 q-3 88 -38.5 163t-109.5 126t-174 51q-139 0 -233.5 -96.5t-108.5 -243.5zM281 1253v115h608v-115h-608z" />
<glyph unicode="&#x114;" horiz-adv-x="1208" d="M236 0v1434h811v-119h-682v-524h643v-119h-643v-553h682v-119h-811zM385 1790h98q3 -64 50 -109t114 -45q68 0 114.5 45t51.5 109h96q-5 -104 -77 -174t-185 -70q-112 0 -184.5 70t-77.5 174z" />
<glyph unicode="&#x115;" horiz-adv-x="1173" d="M131 551q0 233 137.5 384.5t333.5 151.5q104 0 189 -39t140.5 -106t85.5 -154.5t32 -185.5v-84h-791q3 -202 108 -313t261 -111q115 0 188 48.5t127 129.5l98 -84q-67 -98 -169.5 -155.5t-235.5 -57.5q-106 0 -197 37.5t-159.5 108t-108 181.5t-39.5 249zM262 629h664 q-3 88 -38.5 163t-109.5 126t-174 51q-139 0 -233.5 -96.5t-108.5 -243.5zM326 1464h112q5 -82 46 -132t112 -50q72 0 113.5 50t46.5 132h110q-3 -122 -77.5 -203t-192.5 -81q-115 0 -190 81t-80 203z" />
<glyph unicode="&#x116;" horiz-adv-x="1208" d="M236 0v1434h811v-119h-682v-524h643v-119h-643v-553h682v-119h-811zM520 1663q0 49 33.5 80t83.5 31q48 0 81.5 -31t33.5 -80q0 -47 -33.5 -78t-81.5 -31q-50 0 -83.5 31t-33.5 78z" />
<glyph unicode="&#x117;" horiz-adv-x="1173" d="M131 551q0 233 137.5 384.5t333.5 151.5q104 0 189 -39t140.5 -106t85.5 -154.5t32 -185.5v-84h-791q3 -202 108 -313t261 -111q115 0 188 48.5t127 129.5l98 -84q-67 -98 -169.5 -155.5t-235.5 -57.5q-106 0 -197 37.5t-159.5 108t-108 181.5t-39.5 249zM262 629h664 q-3 88 -38.5 163t-109.5 126t-174 51q-139 0 -233.5 -96.5t-108.5 -243.5zM483 1354q0 47 33.5 77.5t83.5 30.5t83.5 -30.5t33.5 -77.5q0 -49 -33.5 -80t-83.5 -31t-83.5 31t-33.5 80z" />
<glyph unicode="&#x118;" horiz-adv-x="1208" d="M236 0v1434h811v-119h-682v-524h643v-119h-643v-553h682v-119h-21q-68 -36 -114 -90.5t-46 -110.5q0 -96 119 -96q37 0 72 12v-92q-46 -14 -90 -14q-82 0 -140.5 45t-58.5 127q0 63 44.5 121.5t113.5 97.5h-690z" />
<glyph unicode="&#x119;" horiz-adv-x="1173" d="M131 551q0 233 137.5 384.5t333.5 151.5q104 0 189 -39t140.5 -106t85.5 -154.5t32 -185.5v-84h-791q3 -202 108 -313t261 -111q115 0 188 48.5t125 127.5h4l96 -82q-58 -87 -145 -141q-109 -79 -109 -176q0 -52 32 -80.5t85 -28.5q48 0 78 21v-94q-46 -19 -90 -19 q-81 0 -137 43.5t-56 128.5q0 83 62 148q-73 -15 -125 -15q-106 0 -197 37.5t-159.5 108t-108 181.5t-39.5 249zM262 629h664q-3 88 -38.5 163t-109.5 126t-174 51q-139 0 -233.5 -96.5t-108.5 -243.5z" />
<glyph unicode="&#x11a;" horiz-adv-x="1208" d="M236 0v1434h811v-119h-682v-524h643v-119h-643v-553h682v-119h-811zM344 1790h139l166 -166l164 166h139l-231 -240h-150z" />
<glyph unicode="&#x11b;" horiz-adv-x="1173" d="M131 551q0 233 137.5 384.5t333.5 151.5q104 0 189 -39t140.5 -106t85.5 -154.5t32 -185.5v-84h-791q3 -202 108 -313t261 -111q115 0 188 48.5t127 129.5l98 -84q-67 -98 -169.5 -155.5t-235.5 -57.5q-106 0 -197 37.5t-159.5 108t-108 181.5t-39.5 249zM262 629h664 q-3 88 -38.5 163t-109.5 126t-174 51q-139 0 -233.5 -96.5t-108.5 -243.5zM317 1481h136l157 -203l160 203h131l-225 -293h-137z" />
<glyph unicode="&#x11c;" horiz-adv-x="1636" d="M137 715q0 -168 57 -308.5t154.5 -234t227 -145.5t274.5 -52q313 0 483 182t176 507q0 9 -1 29t-1 28h-721v-119h582q-3 -233 -138 -368.5t-378 -135.5q-117 0 -222 43.5t-184.5 122t-126.5 196t-47 255.5q0 141 51 258.5t136 194.5t194.5 119t229.5 42q323 0 530 -256 l4 2v170q-227 213 -536 213q-148 0 -283 -52.5t-237.5 -146.5t-163 -235.5t-60.5 -308.5zM565 1550l228 240h149l232 -240h-140l-164 166l-165 -166h-140z" />
<glyph unicode="&#x11d;" horiz-adv-x="1288" d="M150 596q0 115 37 209.5t99 155.5t142 93.5t168 32.5q74 0 136 -20t104 -55t70.5 -72t47.5 -80v205h119v-948q0 -251 -124 -389t-341 -138q-278 0 -442 260l92 84h6q54 -104 145 -165.5t201 -61.5q164 0 257.5 109.5t93.5 304.5v207q-38 -97 -132 -166.5t-227 -69.5 q-91 0 -173 35t-144 98.5t-98.5 159.5t-36.5 211zM274 592q0 -163 98.5 -273t237.5 -110q146 0 240 108t94 275q0 168 -94 275.5t-242 107.5q-145 0 -239.5 -108t-94.5 -275zM334 1194l221 293h137l226 -293h-132l-159 201l-158 -201h-135z" />
<glyph unicode="&#x11e;" horiz-adv-x="1636" d="M137 715q0 -168 57 -308.5t154.5 -234t227 -145.5t274.5 -52q313 0 483 182t176 507q0 9 -1 29t-1 28h-721v-119h582q-3 -233 -138 -368.5t-378 -135.5q-117 0 -222 43.5t-184.5 122t-126.5 196t-47 255.5q0 141 51 258.5t136 194.5t194.5 119t229.5 42q323 0 530 -256 l4 2v170q-227 213 -536 213q-148 0 -283 -52.5t-237.5 -146.5t-163 -235.5t-60.5 -308.5zM580 1790h98q5 -64 51.5 -109t114.5 -45q66 0 112.5 45t51.5 109h96q-3 -103 -75.5 -173.5t-184.5 -70.5q-113 0 -186 70t-78 174z" />
<glyph unicode="&#x11f;" horiz-adv-x="1288" d="M150 596q0 115 37 209.5t99 155.5t142 93.5t168 32.5q74 0 136 -20t104 -55t70.5 -72t47.5 -80v205h119v-948q0 -251 -124 -389t-341 -138q-278 0 -442 260l92 84h6q54 -104 145 -165.5t201 -61.5q164 0 257.5 109.5t93.5 304.5v207q-38 -97 -132 -166.5t-227 -69.5 q-91 0 -173 35t-144 98.5t-98.5 159.5t-36.5 211zM274 592q0 -163 98.5 -273t237.5 -110q146 0 240 108t94 275q0 168 -94 275.5t-242 107.5q-145 0 -239.5 -108t-94.5 -275zM344 1464h115q3 -82 43.5 -132t111.5 -50q72 0 113.5 50t46.5 132h113q-5 -122 -80 -203t-193 -81 q-115 0 -190 81t-80 203z" />
<glyph unicode="&#x120;" horiz-adv-x="1636" d="M137 715q0 -168 57 -308.5t154.5 -234t227 -145.5t274.5 -52q313 0 483 182t176 507q0 9 -1 29t-1 28h-721v-119h582q-3 -233 -138 -368.5t-378 -135.5q-117 0 -222 43.5t-184.5 122t-126.5 196t-47 255.5q0 141 51 258.5t136 194.5t194.5 119t229.5 42q323 0 530 -256 l4 2v170q-227 213 -536 213q-148 0 -283 -52.5t-237.5 -146.5t-163 -235.5t-60.5 -308.5zM766 1663q0 49 33.5 80t83.5 31t83 -31t33 -80q0 -47 -33 -78t-83 -31t-83.5 31t-33.5 78z" />
<glyph unicode="&#x121;" horiz-adv-x="1288" d="M150 596q0 115 37 209.5t99 155.5t142 93.5t168 32.5q74 0 136 -20t104 -55t70.5 -72t47.5 -80v205h119v-948q0 -251 -124 -389t-341 -138q-278 0 -442 260l92 84h6q54 -104 145 -165.5t201 -61.5q164 0 257.5 109.5t93.5 304.5v207q-38 -97 -132 -166.5t-227 -69.5 q-91 0 -173 35t-144 98.5t-98.5 159.5t-36.5 211zM274 592q0 -163 98.5 -273t237.5 -110q146 0 240 108t94 275q0 168 -94 275.5t-242 107.5q-145 0 -239.5 -108t-94.5 -275zM516 1354q0 47 33.5 77.5t83.5 30.5t83.5 -30.5t33.5 -77.5q0 -49 -33.5 -80t-83.5 -31t-83.5 31 t-33.5 80z" />
<glyph unicode="&#x122;" horiz-adv-x="1636" d="M137 715q0 -168 57 -308.5t154.5 -234t227 -145.5t274.5 -52q313 0 483 182t176 507q0 9 -1 29t-1 28h-721v-119h582q-3 -233 -138 -368.5t-378 -135.5q-117 0 -222 43.5t-184.5 122t-126.5 196t-47 255.5q0 141 51 258.5t136 194.5t194.5 119t229.5 42q323 0 530 -256 l4 2v170q-227 213 -536 213q-148 0 -283 -52.5t-237.5 -146.5t-163 -235.5t-60.5 -308.5zM760 -428q61 30 93.5 78.5t37.5 97.5q-8 -4 -29 -4q-32 0 -54 23t-22 57q0 32 25.5 56t62.5 24q40 0 65.5 -29t25.5 -78q0 -42 -9.5 -81.5t-31.5 -79.5t-64 -75t-100 -59v70z" />
<glyph unicode="&#x123;" horiz-adv-x="1288" d="M150 596q0 115 37 209.5t99 155.5t142 93.5t168 32.5q74 0 136 -20t104 -55t70.5 -72t47.5 -80v205h119v-948q0 -251 -124 -389t-341 -138q-278 0 -442 260l92 84h6q54 -104 145 -165.5t201 -61.5q164 0 257.5 109.5t93.5 304.5v207q-38 -97 -132 -166.5t-227 -69.5 q-91 0 -173 35t-144 98.5t-98.5 159.5t-36.5 211zM274 592q0 -163 98.5 -273t237.5 -110q146 0 240 108t94 275q0 168 -94 275.5t-242 107.5q-145 0 -239.5 -108t-94.5 -275zM551 1274q0 42 9.5 81t31 79.5t63.5 75.5t101 59v-72q-61 -29 -94.5 -77.5t-36.5 -96.5q8 4 26 4 q33 0 54.5 -23.5t21.5 -56.5q0 -32 -25 -57t-61 -25q-40 0 -65 30t-25 79z" />
<glyph unicode="&#x124;" horiz-adv-x="1505" d="M236 0v1434h129v-646h774v646h129v-1434h-129v670h-774v-670h-129zM436 1548l228 240h149l231 -240h-139l-164 166l-166 -166h-139z" />
<glyph unicode="&#x125;" horiz-adv-x="1243" d="M16 1565h123l180 174l179 -174h123l-238 245h-137zM223 0v1516h129v-648q46 100 135 158.5t199 58.5q166 0 252 -104t86 -336v-645h-131v614q0 184 -54 270.5t-180 86.5q-93 0 -164.5 -58t-107 -148.5t-35.5 -193.5v-571h-129z" />
<glyph unicode="&#x126;" horiz-adv-x="1527" d="M94 1024v104h156v306h129v-306h774v306h129v-306h148v-104h-148v-1024h-129v670h-774v-670h-129v1024h-156zM379 788h774v236h-774v-236z" />
<glyph unicode="&#x127;" horiz-adv-x="1245" d="M53 1229v98h172v189h129v-189h340v-98h-340v-361q48 101 136.5 159t197.5 58q166 0 252 -104t86 -336v-645h-131v614q0 185 -53.5 271t-179.5 86q-93 0 -164.5 -58t-107.5 -148.5t-36 -193.5v-571h-129v1229h-172z" />
<glyph unicode="&#x128;" horiz-adv-x="600" d="M8 1610v108q85 76 168 76q54 0 101 -23t89 -46t83 -23q73 0 151 78v-109q-81 -72 -160 -72q-38 0 -74.5 14.5t-61 32t-60 32t-72.5 14.5q-82 0 -164 -82zM236 0v1434h129v-1434h-129z" />
<glyph unicode="&#x129;" horiz-adv-x="581" d="M-8 1255v109q82 74 168 74q43 0 82 -14.5t64 -31.5t59 -31.5t67 -14.5q73 0 152 79v-108q-81 -72 -160 -72q-48 0 -92 22.5t-87 45t-89 22.5q-84 0 -164 -80zM225 0v1065h131v-1065h-131z" />
<glyph unicode="&#x12a;" horiz-adv-x="600" d="M70 1604v96h458v-96h-458zM236 0v1434h129v-1434h-129z" />
<glyph unicode="&#x12b;" horiz-adv-x="581" d="M61 1255v97h459v-97h-459zM225 0v1065h131v-1065h-131z" />
<glyph unicode="&#x12c;" horiz-adv-x="600" d="M43 1790h98q3 -64 49.5 -109t114.5 -45q66 0 112.5 45t51.5 109h96q-3 -104 -75 -174t-185 -70q-112 0 -185.5 70.5t-76.5 173.5zM236 0v1434h129v-1434h-129z" />
<glyph unicode="&#x12d;" horiz-adv-x="581" d="M23 1464h112q3 -82 43.5 -132t112.5 -50q73 0 114 50t46 132h112q-5 -122 -79.5 -203t-192.5 -81q-115 0 -190 81t-78 203zM225 0v1065h131v-1065h-131z" />
<glyph unicode="&#x12e;" horiz-adv-x="600" d="M86 -219q0 63 44.5 121.5t113.5 97.5h-8v1434h129v-1434h-21q-68 -36 -114 -90.5t-46 -110.5q0 -96 119 -96q37 0 72 12v-92q-46 -14 -90 -14q-82 0 -140.5 45t-58.5 127z" />
<glyph unicode="&#x12f;" horiz-adv-x="581" d="M100 -223q0 65 44.5 124.5t113.5 98.5h-31v1065h129v-1065q-68 -30 -115.5 -83t-47.5 -114q0 -52 34 -81t88 -29q34 0 72 14v-84q-43 -14 -90 -14q-82 0 -139.5 43.5t-57.5 124.5zM190 1395q0 41 30 68.5t73 27.5t72.5 -27.5t29.5 -68.5q0 -42 -29.5 -70.5t-72.5 -28.5 t-73 28.5t-30 70.5z" />
<glyph unicode="&#x130;" horiz-adv-x="600" d="M190 1663q0 49 33.5 80t83.5 31t83.5 -31t33.5 -80q0 -47 -33.5 -78t-83.5 -31t-83.5 31t-33.5 78zM236 0v1434h129v-1434h-129z" />
<glyph unicode="&#x131;" horiz-adv-x="581" d="M225 0v1065h131v-1065h-131z" />
<glyph unicode="&#x132;" horiz-adv-x="1040" d="M236 360h129v1074h-129v-1074zM326 37v133q66 -66 155 -66q83 0 140 53.5t57 170.5v1106h131v-1129q0 -87 -24.5 -152.5t-67 -102.5t-92.5 -55t-107 -18q-115 0 -192 60z" />
<glyph unicode="&#x134;" horiz-adv-x="724" d="M68 1550l227 240h149l232 -240h-139l-164 166l-166 -166h-139zM74 -6v123q40 -17 98 -17q81 0 132.5 47.5t51.5 157.5v1129h129v-1135q0 -87 -23.5 -150.5t-65.5 -99.5t-92 -52.5t-111 -16.5q-62 0 -119 14z" />
<glyph unicode="&#x135;" horiz-adv-x="600" d="M-82 -207v-129q70 -47 168 -47q57 0 107 18.5t91.5 57t66 105t24.5 153.5v1114h-129v-1112q0 -64 -15.5 -107.5t-44.5 -65t-59.5 -30t-69.5 -8.5q-80 0 -139 51zM23 1202l221 295h133l223 -295h-117l-170 221l-172 -221h-118z" />
<glyph unicode="&#x136;" horiz-adv-x="1296" d="M236 0v1434h129v-682l626 682h172l-655 -701l668 -733h-179l-632 715v-715h-129zM502 -428q61 30 94.5 79t36.5 97q-8 -4 -29 -4q-32 0 -53 23t-21 57q0 32 24.5 56t61.5 24q40 0 65.5 -29t25.5 -78q0 -42 -9.5 -81t-31 -80t-63.5 -75.5t-101 -58.5v70z" />
<glyph unicode="&#x137;" horiz-adv-x="1179" d="M225 0v1516h129v-961l541 510h174l-561 -512l565 -553h-174l-545 547v-547h-129zM459 -428q60 30 93 79t36 97q-8 -4 -27 -4q-33 0 -54.5 23t-21.5 57q0 32 25.5 56t62.5 24q40 0 64.5 -29t24.5 -78q0 -212 -203 -295v70z" />
<glyph unicode="&#x139;" horiz-adv-x="1042" d="M236 0v1434h129v-1315h616v-119h-745zM246 1550l180 240h154l-201 -240h-133z" />
<glyph unicode="&#x13a;" horiz-adv-x="581" d="M215 1573l180 239h156l-203 -239h-133zM225 0v1518h129v-1518h-129z" />
<glyph unicode="&#x13b;" horiz-adv-x="1042" d="M236 0v1434h129v-1315h616v-119h-745zM479 -428q61 30 94.5 79t36.5 97q-8 -4 -26 -4q-33 0 -54.5 23t-21.5 57q0 32 25 56t61 24q40 0 65 -29t25 -78q0 -42 -9.5 -81t-31 -80t-63.5 -75.5t-101 -58.5v70z" />
<glyph unicode="&#x13c;" horiz-adv-x="581" d="M135 -428q61 30 94.5 79t36.5 97q-8 -4 -26 -4q-33 0 -54.5 23t-21.5 57q0 32 25 56t61 24q41 0 65.5 -29t24.5 -78q0 -42 -9.5 -81t-31 -80t-63.5 -75.5t-101 -58.5v70zM225 0v1518h129v-1518h-129z" />
<glyph unicode="&#x13d;" horiz-adv-x="1042" d="M236 0v1434h129v-1315h616v-119h-745zM514 995l18 437h115l-37 -437h-96z" />
<glyph unicode="&#x13e;" horiz-adv-x="632" d="M225 0v1518h129v-1518h-129zM494 1077l18 436h113l-37 -436h-94z" />
<glyph unicode="&#x13f;" horiz-adv-x="1042" d="M236 0v1434h129v-1315h616v-119h-745zM594 754q0 42 27.5 68t70.5 26q42 0 69 -26t27 -68t-27 -69.5t-69 -27.5q-43 0 -70.5 27t-27.5 70z" />
<glyph unicode="&#x140;" horiz-adv-x="735" d="M225 0v1518h129v-1518h-129zM553 739q0 43 27.5 70t68.5 27q43 0 69.5 -27t26.5 -70q0 -42 -27 -69t-69 -27q-41 0 -68.5 27.5t-27.5 68.5z" />
<glyph unicode="&#x141;" horiz-adv-x="1069" d="M94 528v119l168 80v707h129v-648l365 172v-116l-365 -172v-555h617v-115h-746v608z" />
<glyph unicode="&#x142;" horiz-adv-x="669" d="M78 684v102l192 101v631h131v-562l211 111v-102l-211 -111v-854h-131v784z" />
<glyph unicode="&#x143;" horiz-adv-x="1517" d="M236 0v1434h145l770 -1217v1217h131v-1434h-145l-772 1217v-1217h-129zM670 1550l180 240h156l-203 -240h-133z" />
<glyph unicode="&#x144;" horiz-adv-x="1243" d="M225 0v1065h117v-207q45 106 129 166.5t195 60.5q360 0 360 -440v-645h-131v614q0 182 -58.5 269.5t-185.5 87.5q-93 0 -162 -58.5t-102 -148t-33 -193.5v-571h-129zM539 1188l188 293h150l-209 -293h-129z" />
<glyph unicode="&#x145;" horiz-adv-x="1517" d="M236 0v1434h145l770 -1217v1217h131v-1434h-145l-772 1217v-1217h-129zM631 -428q61 30 94.5 79t36.5 97q-8 -4 -27 -4q-33 0 -54.5 23t-21.5 57q0 32 26 56t63 24q40 0 64 -29t24 -78q0 -42 -9.5 -81t-31 -80t-63.5 -75.5t-101 -58.5v70z" />
<glyph unicode="&#x146;" horiz-adv-x="1243" d="M225 0v1065h117v-207q45 106 129 166.5t195 60.5q360 0 360 -440v-645h-131v614q0 182 -58.5 269.5t-185.5 87.5q-93 0 -162 -58.5t-102 -148t-33 -193.5v-571h-129zM498 -428q61 30 94.5 79t36.5 97q-8 -4 -27 -4q-33 0 -54.5 23t-21.5 57q0 32 25.5 56t62.5 24 q40 0 64 -29t24 -78q0 -213 -204 -295v70z" />
<glyph unicode="&#x147;" horiz-adv-x="1517" d="M236 0v1434h145l770 -1217v1217h131v-1434h-145l-772 1217v-1217h-129zM444 1790h140l166 -166l163 166h140l-232 -240h-149z" />
<glyph unicode="&#x148;" horiz-adv-x="1243" d="M225 0v1065h117v-207q45 106 129 166.5t195 60.5q360 0 360 -440v-645h-131v614q0 182 -58.5 269.5t-185.5 87.5q-93 0 -162 -58.5t-102 -148t-33 -193.5v-571h-129zM334 1481h135l158 -203l159 203h132l-226 -293h-137z" />
<glyph unicode="&#x14a;" horiz-adv-x="1517" d="M236 0v1434h135l786 -1223v1223h125v-1483q0 -87 -24.5 -153.5t-66 -105t-91.5 -57t-107 -18.5q-98 0 -168 47v119q59 -51 140 -51q38 0 70 10.5t60.5 34t45 69t16.5 109.5v45l-797 1221v-1221h-124z" />
<glyph unicode="&#x14b;" horiz-adv-x="1243" d="M225 0v1065h117v-207q45 105 132 166t198 61q354 0 354 -440v-694q0 -87 -24.5 -153.5t-66.5 -104.5t-92 -57t-106 -19q-98 0 -168 47v117q56 -51 140 -51q186 0 186 223v661q0 183 -56 270t-182 87q-94 0 -164.5 -58.5t-104.5 -148t-34 -193.5v-571h-129z" />
<glyph unicode="&#x14c;" horiz-adv-x="1691" d="M137 717q0 -135 37 -253t103 -206.5t155 -153t195 -97t221 -32.5q143 0 271.5 52t225.5 145.5t154 235t57 309.5q0 167 -57 308t-154 234.5t-225.5 146t-271.5 52.5q-115 0 -221 -33t-195 -97t-155 -152.5t-103 -206.5t-37 -252zM272 717q0 138 47 255.5t126 195.5 t183 121.5t218 43.5q92 0 177.5 -27.5t157.5 -80.5t126 -127t84 -172t30 -209q0 -140 -46.5 -257.5t-126 -195.5t-183.5 -121t-219 -43q-114 0 -218 43.5t-183 121.5t-126 195.5t-47 256.5zM530 1604v114h609v-114h-609z" />
<glyph unicode="&#x14d;" horiz-adv-x="1292" d="M131 530q0 129 42.5 236.5t114.5 176.5t164.5 106.5t194.5 37.5t194.5 -37.5t164.5 -106.5t114.5 -176.5t42.5 -236.5t-42.5 -236t-114.5 -175.5t-164.5 -106t-194.5 -37.5t-194.5 37.5t-164.5 106t-114.5 175.5t-42.5 236zM258 530q0 -198 112.5 -317t276.5 -119 t276.5 119t112.5 317q0 197 -113 319t-276 122t-276 -122t-113 -319zM336 1253v115h610v-115h-610z" />
<glyph unicode="&#x14e;" horiz-adv-x="1691" d="M137 717q0 -135 37 -253t103 -206.5t155 -153t195 -97t221 -32.5q143 0 271.5 52t225.5 145.5t154 235t57 309.5q0 167 -57 308t-154 234.5t-225.5 146t-271.5 52.5q-115 0 -221 -33t-195 -97t-155 -152.5t-103 -206.5t-37 -252zM272 717q0 138 47 255.5t126 195.5 t183 121.5t218 43.5q92 0 177.5 -27.5t157.5 -80.5t126 -127t84 -172t30 -209q0 -140 -46.5 -257.5t-126 -195.5t-183.5 -121t-219 -43q-114 0 -218 43.5t-183 121.5t-126 195.5t-47 256.5zM578 1790h98q3 -64 50 -109t114 -45q68 0 113.5 44.5t50.5 109.5h98 q-5 -104 -77 -174t-185 -70q-112 0 -185.5 70.5t-76.5 173.5z" />
<glyph unicode="&#x14f;" horiz-adv-x="1292" d="M131 530q0 129 42.5 236.5t114.5 176.5t164.5 106.5t194.5 37.5t194.5 -37.5t164.5 -106.5t114.5 -176.5t42.5 -236.5t-42.5 -236t-114.5 -175.5t-164.5 -106t-194.5 -37.5t-194.5 37.5t-164.5 106t-114.5 175.5t-42.5 236zM258 530q0 -198 112.5 -317t276.5 -119 t276.5 119t112.5 317q0 197 -113 319t-276 122t-276 -122t-113 -319zM381 1464h113q3 -82 43.5 -132t113.5 -50q71 0 112 50t46 132h113q-3 -122 -78.5 -203t-192.5 -81t-192 81t-78 203z" />
<glyph unicode="&#x150;" horiz-adv-x="1691" d="M137 717q0 -135 37 -253t103 -206.5t155 -153t195 -97t221 -32.5q143 0 271.5 52t225.5 145.5t154 235t57 309.5q0 167 -57 308t-154 234.5t-225.5 146t-271.5 52.5q-115 0 -221 -33t-195 -97t-155 -152.5t-103 -206.5t-37 -252zM272 717q0 138 47 255.5t126 195.5 t183 121.5t218 43.5q92 0 177.5 -27.5t157.5 -80.5t126 -127t84 -172t30 -209q0 -140 -46.5 -257.5t-126 -195.5t-183.5 -121t-219 -43q-114 0 -218 43.5t-183 121.5t-126 195.5t-47 256.5zM633 1550l139 240h121l-152 -240h-108zM932 1550l137 240h121l-152 -240h-106z" />
<glyph unicode="&#x151;" horiz-adv-x="1292" d="M131 530q0 129 42.5 236.5t114.5 176.5t164.5 106.5t194.5 37.5t194.5 -37.5t164.5 -106.5t114.5 -176.5t42.5 -236.5t-42.5 -236t-114.5 -175.5t-164.5 -106t-194.5 -37.5t-194.5 37.5t-164.5 106t-114.5 175.5t-42.5 236zM258 530q0 -198 112.5 -317t276.5 -119 t276.5 119t112.5 317q0 197 -113 319t-276 122t-276 -122t-113 -319zM399 1188l138 293h133l-150 -293h-121zM707 1188l135 293h137l-152 -293h-120z" />
<glyph unicode="&#x152;" horiz-adv-x="2396" d="M139 717q0 168 57.5 309t155 234.5t226 145.5t270.5 52q195 0 354.5 -96.5t227.5 -261.5l2 334h802v-119h-680v-524h641v-119h-641v-553h680v-119h-807v328q-64 -162 -223.5 -257.5t-355.5 -95.5q-142 0 -270.5 52t-226 145.5t-155 235t-57.5 309.5zM272 717 q0 -140 47.5 -257.5t128 -195.5t185 -121t219.5 -43q120 0 222.5 42t178.5 119.5t119 195t43 260.5q0 142 -42.5 258.5t-118 194.5t-178.5 120.5t-224 42.5q-115 0 -219.5 -43.5t-185 -121t-128 -195t-47.5 -256.5z" />
<glyph unicode="&#x153;" horiz-adv-x="2045" d="M129 530q0 129 41 236.5t110 176.5t157.5 106.5t185.5 37.5q151 0 266 -77.5t170 -229.5q46 139 157.5 223t253.5 84q104 0 190 -40t142 -109t87 -161t32 -197q0 -39 -2 -62h-793q2 -104 33 -186.5t82.5 -134t118.5 -78.5t143 -27q78 0 141 27t98.5 61t72.5 86h4l92 -78 q-74 -103 -172 -158t-236 -55q-152 0 -266 77t-172 233q-58 -153 -169 -231.5t-265 -78.5q-98 0 -187.5 37.5t-160 106t-112.5 175.5t-42 236zM256 530q0 -201 107 -321.5t266 -120.5q158 0 265 120.5t107 321.5t-107.5 322t-264.5 121q-159 0 -266 -121t-107 -322z M1135 629h663q-1 87 -37 163t-110.5 126.5t-173.5 50.5q-141 0 -235.5 -95.5t-106.5 -244.5z" />
<glyph unicode="&#x154;" horiz-adv-x="1331" d="M236 0v1434h460q151 0 257.5 -40t168.5 -131t62 -229q0 -109 -38.5 -187.5t-109.5 -122.5t-157 -63.5t-193 -19.5h-133l661 -641h-176l-673 664v-664h-129zM365 756h319q57 0 102.5 5t98 22t88 45.5t59 80.5t23.5 123q0 156 -96.5 219.5t-276.5 63.5h-317v-559zM524 1550 l181 240h155l-203 -240h-133z" />
<glyph unicode="&#x155;" horiz-adv-x="755" d="M225 0v1065h117l2 -217q35 101 114.5 168t190.5 67q37 0 53 -4v-135q-24 6 -59 6q-125 0 -207 -107t-82 -251v-592h-129zM352 1188l189 293h149l-209 -293h-129z" />
<glyph unicode="&#x156;" horiz-adv-x="1331" d="M236 0v1434h460q151 0 257.5 -40t168.5 -131t62 -229q0 -109 -38.5 -187.5t-109.5 -122.5t-157 -63.5t-193 -19.5h-133l661 -641h-176l-673 664v-664h-129zM365 756h319q57 0 102.5 5t98 22t88 45.5t59 80.5t23.5 123q0 156 -96.5 219.5t-276.5 63.5h-317v-559zM528 -428 q60 30 93 79t36 97q-8 -4 -26 -4q-33 0 -54.5 23t-21.5 57q0 32 25.5 56t62.5 24q40 0 64 -29t24 -78q0 -212 -203 -295v70z" />
<glyph unicode="&#x157;" horiz-adv-x="755" d="M166 -428q60 30 93 79t36 97q-8 -4 -27 -4q-33 0 -54 23t-21 57q0 32 25.5 56t62.5 24q40 0 64 -29t24 -78q0 -212 -203 -295v70zM225 0v1065h117l2 -217q35 101 114.5 168t190.5 67q37 0 53 -4v-135q-24 6 -59 6q-125 0 -207 -107t-82 -251v-592h-129z" />
<glyph unicode="&#x158;" horiz-adv-x="1331" d="M236 0v1434h460q151 0 257.5 -40t168.5 -131t62 -229q0 -109 -38.5 -187.5t-109.5 -122.5t-157 -63.5t-193 -19.5h-133l661 -641h-176l-673 664v-664h-129zM336 1790h139l166 -166l164 166h139l-231 -240h-150zM365 756h319q57 0 102.5 5t98 22t88 45.5t59 80.5t23.5 123 q0 156 -96.5 219.5t-276.5 63.5h-317v-559z" />
<glyph unicode="&#x159;" horiz-adv-x="755" d="M168 1481h133l158 -203l159 203h134l-226 -293h-139zM227 0v1065h117v-217q35 100 115 167.5t190 67.5q40 0 56 -4v-135q-24 6 -60 6q-125 0 -207 -107t-82 -251v-592h-129z" />
<glyph unicode="&#x15a;" d="M125 266l121 70q43 -106 133.5 -171.5t212.5 -66.5q136 1 217.5 76t81.5 182q0 44 -11 82t-26.5 65.5t-44 52.5t-52.5 40.5t-63.5 32t-65.5 25.5t-69 22q-44 13 -76 24t-75.5 31t-75 40.5t-65 52.5t-54 68t-34 86t-13.5 107q0 155 116.5 263.5t303.5 109.5 q167 -1 267.5 -70t162.5 -198l-117 -62q-86 208 -313 211q-121 -2 -204 -74t-83 -178q0 -47 12.5 -85.5t38.5 -67t53 -49t69.5 -38t74 -28t78.5 -24.5q3 -1 5 -1.5t4.5 -1t4.5 -1.5q63 -19 110.5 -39t101 -55t88.5 -78.5t58 -110t23 -148.5q0 -164 -117.5 -274.5 t-316.5 -110.5q-161 0 -278 76.5t-183 214.5zM498 1550l180 240h156l-203 -240h-133z" />
<glyph unicode="&#x15b;" horiz-adv-x="980" d="M143 180l109 86q40 -74 111.5 -123t152.5 -49q94 0 149.5 53t55.5 123q0 40 -13 72t-30.5 52t-51 38t-57 27t-65.5 22q-41 13 -64 20.5t-62.5 24t-62.5 31.5t-52.5 40t-45.5 52t-27.5 64.5t-11.5 81.5q0 132 99.5 212t236.5 80q112 0 190.5 -47t139.5 -143l-111 -72 q-76 144 -225 144q-80 0 -139.5 -48.5t-59.5 -121.5q0 -26 8 -49t18 -39t32.5 -32t35.5 -24t45 -20t44 -16t47 -15q53 -16 89 -29.5t82 -41t74 -60.5t48 -85.5t20 -117.5q0 -121 -92 -208t-246 -87q-119 0 -209.5 50.5t-161.5 154.5zM395 1188l189 293h149l-209 -293h-129z " />
<glyph unicode="&#x15c;" d="M125 266l121 70q43 -106 133.5 -171.5t212.5 -66.5q136 1 217.5 76t81.5 182q0 44 -11 82t-26.5 65.5t-44 52.5t-52.5 40.5t-63.5 32t-65.5 25.5t-69 22q-44 13 -76 24t-75.5 31t-75 40.5t-65 52.5t-54 68t-34 86t-13.5 107q0 155 116.5 263.5t303.5 109.5 q167 -1 267.5 -70t162.5 -198l-117 -62q-86 208 -313 211q-121 -2 -204 -74t-83 -178q0 -47 12.5 -85.5t38.5 -67t53 -49t69.5 -38t74 -28t78.5 -24.5q3 -1 5 -1.5t4.5 -1t4.5 -1.5q63 -19 110.5 -39t101 -55t88.5 -78.5t58 -110t23 -148.5q0 -164 -117.5 -274.5 t-316.5 -110.5q-161 0 -278 76.5t-183 214.5zM268 1548l228 240h147l234 -240h-140l-166 166l-163 -166h-140z" />
<glyph unicode="&#x15d;" horiz-adv-x="980" d="M143 180l109 86q40 -74 111.5 -123t152.5 -49q94 0 149.5 53t55.5 123q0 40 -13 72t-30.5 52t-51 38t-57 27t-65.5 22q-41 13 -64 20.5t-62.5 24t-62.5 31.5t-52.5 40t-45.5 52t-27.5 64.5t-11.5 81.5q0 132 99.5 212t236.5 80q112 0 190.5 -47t139.5 -143l-111 -72 q-76 144 -225 144q-80 0 -139.5 -48.5t-59.5 -121.5q0 -26 8 -49t18 -39t32.5 -32t35.5 -24t45 -20t44 -16t47 -15q53 -16 89 -29.5t82 -41t74 -60.5t48 -85.5t20 -117.5q0 -121 -92 -208t-246 -87q-119 0 -209.5 50.5t-161.5 154.5zM225 1194l221 293h138l225 -293h-133 l-158 201l-158 -201h-135z" />
<glyph unicode="&#x15e;" d="M125 266l121 70q43 -106 133.5 -171.5t212.5 -66.5q136 1 217.5 76t81.5 182q0 44 -11 82t-26.5 65.5t-44 52.5t-52.5 40.5t-63.5 32t-65.5 25.5t-69 22q-44 13 -76 24t-75.5 31t-75 40.5t-65 52.5t-54 68t-34 86t-13.5 107q0 155 116.5 263.5t303.5 109.5 q167 -1 267.5 -70t162.5 -198l-117 -62q-86 208 -313 211q-121 -2 -204 -74t-83 -178q0 -47 12.5 -85.5t38.5 -67t53 -49t69.5 -38t74 -28t78.5 -24.5q3 -1 5 -1.5t4.5 -1t4.5 -1.5q63 -19 110.5 -39t101 -55t88.5 -78.5t58 -110t23 -148.5q0 -158 -109 -267t-295 -118 l-30 -69q57 -2 101 -45.5t44 -106.5q0 -69 -50 -119.5t-132 -50.5q-69 0 -119 37v88q44 -47 105 -47q46 0 75 23.5t29 64.5q0 44 -31.5 69t-79.5 25h-49l51 133q-140 13 -242.5 88t-162.5 201z" />
<glyph unicode="&#x15f;" horiz-adv-x="980" d="M143 180l109 86q40 -74 111.5 -123t152.5 -49q94 0 149.5 53t55.5 123q0 40 -13 72t-30.5 52t-51 38t-57 27t-65.5 22q-41 13 -64 20.5t-62.5 24t-62.5 31.5t-52.5 40t-45.5 52t-27.5 64.5t-11.5 81.5q0 132 99.5 212t236.5 80q112 0 190.5 -47t139.5 -143l-111 -72 q-76 144 -225 144q-80 0 -139.5 -48.5t-59.5 -121.5q0 -26 8 -49t18 -39t32.5 -32t35.5 -24t45 -20t44 -16t47 -15q53 -16 89 -29.5t82 -41t74 -60.5t48 -85.5t20 -117.5q0 -119 -90 -205.5t-240 -89.5l-28 -69q57 -2 101 -45.5t44 -106.5q0 -69 -50 -119.5t-132 -50.5 q-69 0 -119 37v88q44 -47 104 -47q47 0 76 23.5t29 64.5q0 44 -31.5 69t-79.5 25h-49l49 138q-177 26 -293 198z" />
<glyph unicode="&#x160;" d="M125 266l121 70q43 -106 133.5 -171.5t212.5 -66.5q136 1 217.5 76t81.5 182q0 44 -11 82t-26.5 65.5t-44 52.5t-52.5 40.5t-63.5 32t-65.5 25.5t-69 22q-44 13 -76 24t-75.5 31t-75 40.5t-65 52.5t-54 68t-34 86t-13.5 107q0 155 116.5 263.5t303.5 109.5 q167 -1 267.5 -70t162.5 -198l-117 -62q-86 208 -313 211q-121 -2 -204 -74t-83 -178q0 -47 12.5 -85.5t38.5 -67t53 -49t69.5 -38t74 -28t78.5 -24.5q3 -1 5 -1.5t4.5 -1t4.5 -1.5q63 -19 110.5 -39t101 -55t88.5 -78.5t58 -110t23 -148.5q0 -164 -117.5 -274.5 t-316.5 -110.5q-161 0 -278 76.5t-183 214.5zM260 1790h137l166 -166l166 166h137l-231 -240h-148z" />
<glyph unicode="&#x161;" horiz-adv-x="980" d="M143 180l109 86q40 -74 111.5 -123t152.5 -49q94 0 149.5 53t55.5 123q0 40 -13 72t-30.5 52t-51 38t-57 27t-65.5 22q-41 13 -64 20.5t-62.5 24t-62.5 31.5t-52.5 40t-45.5 52t-27.5 64.5t-11.5 81.5q0 132 99.5 212t236.5 80q112 0 190.5 -47t139.5 -143l-111 -72 q-76 144 -225 144q-80 0 -139.5 -48.5t-59.5 -121.5q0 -26 8 -49t18 -39t32.5 -32t35.5 -24t45 -20t44 -16t47 -15q53 -16 89 -29.5t82 -41t74 -60.5t48 -85.5t20 -117.5q0 -121 -92 -208t-246 -87q-119 0 -209.5 50.5t-161.5 154.5zM215 1485h133l158 -203l160 203h131 l-224 -295h-139z" />
<glyph unicode="&#x162;" horiz-adv-x="1087" d="M41 1315v119h1006v-119h-439v-1315h-14l-41 -96q57 -2 101 -45.5t44 -106.5q0 -69 -50 -119.5t-132 -50.5q-67 0 -117 37v86q42 -45 103 -45q46 0 75 23.5t29 64.5q0 44 -31 68t-79 24h-50l60 160h-27v1315h-438z" />
<glyph unicode="&#x163;" horiz-adv-x="753" d="M74 946v119h207v356h129v-356h292v-119h-292v-946h-17l-39 -96q57 -2 101.5 -45.5t44.5 -106.5q0 -69 -50.5 -119.5t-132.5 -50.5q-68 0 -118 37v86q45 -45 104 -45q47 0 76 23.5t29 64.5q0 44 -31.5 68t-79.5 24h-49l59 160h-26v946h-207z" />
<glyph unicode="&#x164;" horiz-adv-x="1087" d="M41 1315v119h1006v-119h-439v-1315h-129v1315h-438zM233 1790h138l166 -166l165 166h138l-232 -240h-147z" />
<glyph unicode="&#x165;" horiz-adv-x="753" d="M74 946v119h207v356h129v-356h292v-119h-292v-946h-129v946h-207zM549 1178l18 438h113l-37 -438h-94z" />
<glyph unicode="&#x166;" horiz-adv-x="1087" d="M41 1315v119h1006v-119h-199v-51h-240v-1264h-129v1264h-239v51h-199z" />
<glyph unicode="&#x167;" horiz-adv-x="753" d="M74 600v102h207v252h-207v111h207v334h129v-334h292v-111h-292v-252h290v-102h-290v-600h-129v600h-207z" />
<glyph unicode="&#x168;" horiz-adv-x="1460" d="M209 594v840h129v-832q0 -242 103 -373t290 -131t289 131t102 373v832h131v-840q0 -299 -142 -459t-380 -160t-380 160t-142 459zM428 1610v108q85 76 166 76q55 0 101.5 -23t88 -46t82.5 -23q78 0 152 78v-109q-81 -72 -158 -72q-39 0 -76 14.5t-61 32t-59.5 32 t-71.5 14.5q-82 0 -164 -82z" />
<glyph unicode="&#x169;" horiz-adv-x="1243" d="M217 420v645h129v-614q0 -182 59 -269.5t185 -87.5q93 0 163 58.5t103 148t33 193.5v571h129v-1065h-119v207q-45 -107 -129 -168.5t-192 -61.5q-171 0 -266 106.5t-95 336.5zM317 1255v109q82 74 166 74q54 0 101 -23t89 -46t83 -23q72 0 151 79v-108q-81 -72 -157 -72 q-49 0 -93.5 22.5t-87.5 45t-88 22.5q-88 0 -164 -80z" />
<glyph unicode="&#x16a;" horiz-adv-x="1460" d="M209 594v840h129v-832q0 -242 103 -373t290 -131t289 131t102 373v832h131v-840q0 -299 -142 -459t-380 -160t-380 160t-142 459zM416 1604v114h608v-114h-608z" />
<glyph unicode="&#x16b;" horiz-adv-x="1243" d="M217 420v645h131v-614q0 -182 58 -269.5t186 -87.5q93 0 162 58.5t102 148t33 193.5v571h131v-1065h-119v207q-45 -107 -129 -168.5t-194 -61.5q-171 0 -266 106.5t-95 336.5zM301 1253v115h608v-115h-608z" />
<glyph unicode="&#x16c;" horiz-adv-x="1460" d="M209 594v840h129v-832q0 -242 103 -373t290 -131t289 131t102 373v832h131v-840q0 -299 -142 -459t-380 -160t-380 160t-142 459zM461 1790h98q3 -64 49.5 -109t114.5 -45q66 0 112.5 45t51.5 109h96q-3 -104 -75 -174t-185 -70t-186 70.5t-76 173.5z" />
<glyph unicode="&#x16d;" horiz-adv-x="1243" d="M217 420v645h129v-614q0 -182 59 -269.5t185 -87.5q93 0 163 58.5t103 148t33 193.5v571h129v-1065h-119v207q-45 -107 -129 -168.5t-192 -61.5q-171 0 -266 106.5t-95 336.5zM344 1464h113q5 -82 45.5 -132t111.5 -50q72 0 113.5 50t46.5 132h111q-3 -122 -78 -203 t-193 -81q-115 0 -190 81t-80 203z" />
<glyph unicode="&#x16e;" horiz-adv-x="1460" d="M209 594v840h129v-832q0 -242 103 -373t290 -131t289 131t102 373v832h131v-840q0 -299 -142 -459t-380 -160t-380 160t-142 459zM547 1696q0 72 50 120t126 48q77 0 126.5 -47.5t49.5 -120.5t-49.5 -120.5t-126.5 -47.5q-76 0 -126 48t-50 120zM627 1696q0 -39 28 -68 t68 -29q43 0 69.5 28.5t26.5 68.5q0 39 -26.5 66.5t-69.5 27.5q-41 0 -68.5 -27.5t-27.5 -66.5z" />
<glyph unicode="&#x16f;" horiz-adv-x="1243" d="M217 420v645h129v-614q0 -182 59 -269.5t185 -87.5q93 0 163 58.5t103 148t33 193.5v571h129v-1065h-119v207q-45 -107 -129 -168.5t-192 -61.5q-171 0 -266 106.5t-95 336.5zM428 1343q0 79 54 129t134 50q81 0 135 -50t54 -129q0 -80 -54 -129t-135 -49t-134.5 49 t-53.5 129zM514 1343q0 -45 28.5 -73.5t73.5 -28.5t73 28.5t28 73.5t-28 74t-73 29t-73.5 -29t-28.5 -74z" />
<glyph unicode="&#x170;" horiz-adv-x="1460" d="M209 594v840h129v-832q0 -242 103 -373t290 -131t289 131t102 373v832h131v-840q0 -299 -142 -459t-380 -160t-380 160t-142 459zM479 1550l137 240h121l-151 -240h-107zM776 1550l139 240h119l-151 -240h-107z" />
<glyph unicode="&#x171;" horiz-adv-x="1243" d="M217 420v645h129v-614q0 -182 59 -269.5t185 -87.5q93 0 163 58.5t103 148t33 193.5v571h129v-1065h-119v207q-45 -107 -129 -168.5t-192 -61.5q-171 0 -266 106.5t-95 336.5zM369 1188l137 293h135l-152 -293h-120zM676 1188l137 293h135l-149 -293h-123z" />
<glyph unicode="&#x172;" horiz-adv-x="1460" d="M209 594v840h129v-832q0 -242 103 -373t290 -131t289 131t102 373v832h131v-840q0 -258 -106.5 -413t-292.5 -193q-60 -38 -98.5 -88t-38.5 -101q0 -96 117 -96q39 0 71 12v-92q-43 -14 -90 -14q-81 0 -139 45t-58 127q0 55 32 105.5t87 88.5h-6q-238 0 -380 160 t-142 459z" />
<glyph unicode="&#x173;" horiz-adv-x="1243" d="M217 420v645h129v-614q0 -182 59 -269.5t185 -87.5q93 0 163 58.5t103 148t33 193.5v571h129v-1065h-23q-66 -36 -111.5 -91t-45.5 -110q0 -96 116 -96q40 0 72 12v-92q-43 -14 -90 -14q-81 0 -139 45t-58 127q0 65 44.5 123.5t115.5 97.5v205q-45 -107 -129 -168.5 t-192 -61.5q-171 0 -266 106.5t-95 336.5z" />
<glyph unicode="&#x174;" horiz-adv-x="1935" d="M88 1434h141l330 -1282l338 1282h143l338 -1282l332 1282h137l-389 -1434h-162l-329 1208l-328 -1208h-160zM655 1548l228 240h147l232 -240h-138l-166 166l-165 -166h-138z" />
<glyph unicode="&#x175;" horiz-adv-x="1685" d="M98 1065h138l260 -889l280 889h146l276 -897l258 897h131l-325 -1065h-134l-284 891l-287 -891h-131zM565 1202l221 295h138l225 -295h-131l-160 203l-158 -203h-135z" />
<glyph unicode="&#x176;" horiz-adv-x="1189" d="M41 1434h154l401 -705l405 705h148l-490 -832v-602h-129v602zM281 1548l227 240h149l232 -240h-139l-164 166l-166 -166h-139z" />
<glyph unicode="&#x177;" horiz-adv-x="1105" d="M94 1065h139l336 -774l336 774h139l-659 -1466h-133l252 553zM299 1194l221 293h137l226 -293h-133l-158 201l-158 -201h-135z" />
<glyph unicode="&#x178;" horiz-adv-x="1189" d="M41 1434h154l401 -705l405 705h148l-490 -832v-602h-129v602zM309 1663q0 41 26.5 66.5t67.5 25.5t67 -25.5t26 -66.5t-26 -66.5t-67 -25.5t-67.5 25.5t-26.5 66.5zM702 1663q0 41 26.5 66.5t68.5 25.5q41 0 67.5 -25.5t26.5 -66.5t-26.5 -66.5t-67.5 -25.5 q-42 0 -68.5 25.5t-26.5 66.5z" />
<glyph unicode="&#x179;" horiz-adv-x="1245" d="M129 0v109l827 1206h-811v119h967v-111l-827 -1204h835v-119h-991zM498 1550l180 240h156l-203 -240h-133z" />
<glyph unicode="&#x17a;" horiz-adv-x="1038" d="M143 0v119l584 827h-573v119h716v-119l-581 -827h590v-119h-736zM403 1188l189 293h149l-209 -293h-129z" />
<glyph unicode="&#x17b;" horiz-adv-x="1245" d="M129 0v109l827 1206h-811v119h967v-111l-827 -1204h835v-119h-991zM492 1663q0 49 33 80t83 31t83.5 -31t33.5 -80q0 -47 -33.5 -78t-83.5 -31t-83 31t-33 78z" />
<glyph unicode="&#x17c;" horiz-adv-x="1038" d="M143 0v119l584 827h-573v119h716v-119l-581 -827h590v-119h-736zM385 1354q0 47 33.5 77.5t83.5 30.5t83 -30.5t33 -77.5q0 -49 -33 -80t-83 -31t-83.5 31t-33.5 80z" />
<glyph unicode="&#x17d;" horiz-adv-x="1245" d="M129 0v109l827 1206h-811v119h967v-111l-827 -1204h835v-119h-991zM289 1790h139l166 -166l164 166h139l-231 -240h-150z" />
<glyph unicode="&#x17e;" horiz-adv-x="1038" d="M143 0v119l584 827h-573v119h716v-119l-581 -827h590v-119h-736zM240 1481h133l159 -203l158 203h133l-225 -293h-139z" />
<glyph unicode="&#x17f;" horiz-adv-x="657" d="M113 954v111h145v233q0 110 56 169t153 59q80 0 127 -47v-113q-39 51 -98 51q-107 0 -107 -139v-1278h-129v954h-147z" />
<glyph unicode="&#x192;" horiz-adv-x="868" d="M-63 -379l16 111q51 -23 100 -23q82 0 143 50.5t80 174.5l138 971h-148l17 111h145l35 233q17 112 82 171t162 59q78 0 118 -47l-16 -115q-35 53 -94 53q-54 0 -88.5 -36t-44.5 -105l-33 -213h188l-16 -111h-178l-137 -971q-13 -87 -47 -154t-81.5 -106t-100 -58 t-109.5 -19q-76 0 -131 24z" />
<glyph unicode="&#x218;" d="M125 266l121 70q43 -106 133.5 -171.5t212.5 -66.5q136 1 217.5 76t81.5 182q0 44 -11 82t-26.5 65.5t-44 52.5t-52.5 40.5t-63.5 32t-65.5 25.5t-69 22q-44 13 -76 24t-75.5 31t-75 40.5t-65 52.5t-54 68t-34 86t-13.5 107q0 155 116.5 263.5t303.5 109.5 q167 -1 267.5 -70t162.5 -198l-117 -62q-86 208 -313 211q-121 -2 -204 -74t-83 -178q0 -47 12.5 -85.5t38.5 -67t53 -49t69.5 -38t74 -28t78.5 -24.5q3 -1 5 -1.5t4.5 -1t4.5 -1.5q63 -19 110.5 -39t101 -55t88.5 -78.5t58 -110t23 -148.5q0 -164 -117.5 -274.5 t-316.5 -110.5q-161 0 -278 76.5t-183 214.5zM449 -428q61 30 94.5 79t36.5 97q-8 -4 -27 -4q-33 0 -54.5 23t-21.5 57q0 32 24.5 56t61.5 24q40 0 65 -29t25 -78q0 -213 -204 -295v70z" />
<glyph unicode="&#x219;" horiz-adv-x="980" d="M143 180l109 86q40 -74 111.5 -123t152.5 -49q94 0 149.5 53t55.5 123q0 40 -13 72t-30.5 52t-51 38t-57 27t-65.5 22q-41 13 -64 20.5t-62.5 24t-62.5 31.5t-52.5 40t-45.5 52t-27.5 64.5t-11.5 81.5q0 132 99.5 212t236.5 80q112 0 190.5 -47t139.5 -143l-111 -72 q-76 144 -225 144q-80 0 -139.5 -48.5t-59.5 -121.5q0 -26 8 -49t18 -39t32.5 -32t35.5 -24t45 -20t44 -16t47 -15q53 -16 89 -29.5t82 -41t74 -60.5t48 -85.5t20 -117.5q0 -121 -92 -208t-246 -87q-119 0 -209.5 50.5t-161.5 154.5zM362 -428q61 30 94 78.5t38 97.5 q-8 -4 -29 -4q-32 0 -54 23t-22 57q0 32 25.5 56t62.5 24q40 0 65 -29t25 -78q0 -42 -9.5 -81.5t-31.5 -79.5t-64 -75t-100 -59v70z" />
<glyph unicode="&#x21a;" horiz-adv-x="1087" d="M41 1315v119h1006v-119h-439v-1315h-129v1315h-438zM401 -428q61 30 94.5 79t36.5 97q-8 -4 -26 -4q-33 0 -54.5 23t-21.5 57q0 32 25.5 56t62.5 24q40 0 64 -29t24 -78q0 -42 -9.5 -81t-31 -80t-63.5 -75.5t-101 -58.5v70z" />
<glyph unicode="&#x21b;" horiz-adv-x="753" d="M74 946v119h207v356h129v-356h292v-119h-292v-946h-129v946h-207zM207 -428q61 30 94.5 79t36.5 97q-8 -4 -27 -4q-33 0 -54 23t-21 57q0 32 25 56t61 24q40 0 65 -29t25 -78q0 -42 -9.5 -81t-31 -80t-63.5 -75.5t-101 -58.5v70z" />
<glyph unicode="&#x2c6;" horiz-adv-x="772" d="M106 1194l220 295h139l225 -295h-133l-160 203l-157 -203h-134z" />
<glyph unicode="&#x2c7;" horiz-adv-x="823" d="M139 1481h135l158 -203l160 203h131l-225 -293h-138z" />
<glyph unicode="&#x2d8;" horiz-adv-x="745" d="M102 1464h113q5 -82 46 -132t112 -50t112.5 50t46.5 132h111q-3 -122 -77.5 -203t-192.5 -81q-116 0 -192 81.5t-79 202.5z" />
<glyph unicode="&#x2d9;" horiz-adv-x="493" d="M135 1354q0 47 33.5 77.5t83.5 30.5t82.5 -30.5t32.5 -77.5q0 -49 -32.5 -80t-82.5 -31t-83.5 31t-33.5 80z" />
<glyph unicode="&#x2da;" horiz-adv-x="622" d="M129 1339q0 79 54 129t134 50q81 0 135 -50t54 -129q0 -78 -54 -128t-135 -50t-134.5 49.5t-53.5 128.5zM215 1339q0 -45 28.5 -73.5t73.5 -28.5t73 28.5t28 73.5t-28 74t-73 29t-73.5 -29t-28.5 -74z" />
<glyph unicode="&#x2db;" horiz-adv-x="718" d="M154 -219q0 70 52.5 132.5t131.5 100.5l74 -14q-67 -37 -113.5 -91.5t-46.5 -109.5q0 -96 119 -96q36 0 71 12v-92q-46 -14 -90 -14q-82 0 -140 45t-58 127z" />
<glyph unicode="&#x2dc;" horiz-adv-x="899" d="M145 1255v109q82 74 168 74q54 0 101 -23t89 -46t83 -23q72 0 151 79v-108q-81 -72 -157 -72q-49 0 -93.5 22.5t-87.5 45t-88 22.5q-86 0 -166 -80z" />
<glyph unicode="&#x2dd;" horiz-adv-x="837" d="M129 1188l137 293h133l-149 -293h-121zM436 1188l135 293h138l-152 -293h-121z" />
<glyph unicode="&#x326;" horiz-adv-x="0" d="M188 -428q60 30 93 79t36 97q-8 -4 -26 -4q-33 0 -54.5 23t-21.5 57q0 32 25.5 56t62.5 24q40 0 64 -29t24 -78q0 -212 -203 -295v70z" />
<glyph unicode="&#x1e80;" horiz-adv-x="1935" d="M88 1434h141l330 -1282l338 1282h143l338 -1282l332 1282h137l-389 -1434h-162l-329 1208l-328 -1208h-160zM764 1790h135l191 -240h-115z" />
<glyph unicode="&#x1e81;" horiz-adv-x="1685" d="M98 1065h138l260 -889l280 889h146l276 -897l258 897h131l-325 -1065h-134l-284 891l-287 -891h-131zM596 1481h149l189 -293h-129z" />
<glyph unicode="&#x1e82;" horiz-adv-x="1935" d="M88 1434h141l330 -1282l338 1282h143l338 -1282l332 1282h137l-389 -1434h-162l-329 1208l-328 -1208h-160zM831 1550l181 240h155l-202 -240h-134z" />
<glyph unicode="&#x1e83;" horiz-adv-x="1685" d="M98 1065h138l260 -889l280 889h146l276 -897l258 897h131l-325 -1065h-134l-284 891l-287 -891h-131zM748 1188l188 293h149l-208 -293h-129z" />
<glyph unicode="&#x1e84;" horiz-adv-x="1935" d="M88 1434h141l330 -1282l338 1282h143l338 -1282l332 1282h137l-389 -1434h-162l-329 1208l-328 -1208h-160zM682 1663q0 41 26.5 66.5t67.5 25.5t67.5 -25.5t26.5 -66.5t-26.5 -66.5t-67.5 -25.5t-67.5 25.5t-26.5 66.5zM1075 1663q0 41 26.5 66.5t67.5 25.5 q43 0 69 -25.5t26 -66.5t-26 -66.5t-69 -25.5q-41 0 -67.5 25.5t-26.5 66.5z" />
<glyph unicode="&#x1e85;" horiz-adv-x="1685" d="M98 1065h138l260 -889l280 889h146l276 -897l258 897h131l-325 -1065h-134l-284 891l-287 -891h-131zM557 1358q0 41 26.5 66.5t69.5 25.5q41 0 66.5 -25.5t25.5 -66.5t-25.5 -66.5t-66.5 -25.5q-43 0 -69.5 25.5t-26.5 66.5zM952 1358q0 41 26.5 66.5t68.5 25.5 q41 0 66.5 -25.5t25.5 -66.5t-25.5 -66.5t-66.5 -25.5q-42 0 -68.5 25.5t-26.5 66.5z" />
<glyph unicode="&#x1ef2;" horiz-adv-x="1189" d="M41 1434h154l401 -705l405 705h148l-490 -832v-602h-129v602zM336 1790h135l191 -240h-113z" />
<glyph unicode="&#x1ef3;" horiz-adv-x="1105" d="M94 1065h139l336 -774l336 774h139l-659 -1466h-133l252 553zM346 1481h150l188 -293h-129z" />
<glyph unicode="&#x2000;" horiz-adv-x="932" />
<glyph unicode="&#x2001;" horiz-adv-x="1864" />
<glyph unicode="&#x2002;" horiz-adv-x="932" />
<glyph unicode="&#x2003;" horiz-adv-x="1864" />
<glyph unicode="&#x2004;" horiz-adv-x="621" />
<glyph unicode="&#x2005;" horiz-adv-x="466" />
<glyph unicode="&#x2006;" horiz-adv-x="310" />
<glyph unicode="&#x2007;" horiz-adv-x="310" />
<glyph unicode="&#x2008;" horiz-adv-x="233" />
<glyph unicode="&#x2009;" horiz-adv-x="372" />
<glyph unicode="&#x200a;" horiz-adv-x="103" />
<glyph unicode="&#x2010;" horiz-adv-x="804" d="M94 573v117h615v-117h-615z" />
<glyph unicode="&#x2011;" horiz-adv-x="804" d="M94 573v117h615v-117h-615z" />
<glyph unicode="&#x2012;" horiz-adv-x="804" d="M94 573v117h615v-117h-615z" />
<glyph unicode="&#x2013;" horiz-adv-x="1079" d="M94 573v117h889v-117h-889z" />
<glyph unicode="&#x2014;" horiz-adv-x="2103" d="M94 573v117h1913v-117h-1913z" />
<glyph unicode="&#x2018;" horiz-adv-x="501" d="M127 1077q0 270 252 375v-100q-150 -75 -160 -209q24 4 29 4q43 0 69.5 -29t26.5 -69q0 -43 -29.5 -74t-78.5 -31q-50 0 -79.5 35.5t-29.5 97.5z" />
<glyph unicode="&#x2019;" horiz-adv-x="501" d="M145 944v98q150 78 160 211q-12 -4 -29 -4q-43 0 -69.5 29.5t-26.5 69.5q0 43 30 73.5t79 30.5q51 0 79.5 -35.5t28.5 -97.5q0 -271 -252 -375z" />
<glyph unicode="&#x201a;" horiz-adv-x="501" d="M104 -211q150 75 160 209q-24 -4 -28 -4q-43 0 -70 29t-27 69q0 43 30 74t79 31q51 0 79.5 -35.5t28.5 -98.5q0 -270 -252 -374v100z" />
<glyph unicode="&#x201c;" horiz-adv-x="878" d="M127 1075q0 270 252 375v-100q-150 -75 -160 -209q24 4 29 4q43 0 69.5 -29t26.5 -69q0 -43 -29.5 -74t-78.5 -31q-50 0 -79.5 35.5t-29.5 97.5zM502 1075q0 270 252 375v-100q-150 -75 -160 -209q24 4 31 4q41 0 67.5 -29t26.5 -69q0 -43 -29.5 -74t-77.5 -31 q-51 0 -80.5 35t-29.5 98z" />
<glyph unicode="&#x201d;" horiz-adv-x="878" d="M145 950v99q150 78 160 211q-4 -1 -10 -2t-10.5 -2t-8.5 -1q-43 0 -69.5 29.5t-26.5 69.5q0 43 30 73.5t79 30.5q51 0 79.5 -35t28.5 -98q0 -271 -252 -375zM520 950v99q150 78 160 211q-25 -5 -29 -5q-43 0 -69.5 29.5t-26.5 69.5q0 43 30.5 73.5t78.5 30.5 q51 0 79.5 -35t28.5 -98q0 -271 -252 -375z" />
<glyph unicode="&#x201e;" horiz-adv-x="878" d="M104 -211q150 75 160 209q-24 -4 -28 -4q-43 0 -70 29t-27 69q0 43 30 74t79 31q51 0 79.5 -35.5t28.5 -98.5q0 -270 -252 -374v100zM479 -211q150 75 160 209q-20 -4 -29 -4q-43 0 -69.5 29t-26.5 69q0 43 30.5 74t78.5 31q51 0 79.5 -35.5t28.5 -98.5q0 -270 -252 -374 v100z" />
<glyph unicode="&#x2020;" horiz-adv-x="1058" d="M94 874v117h371v443h129v-443h369v-117h-369v-1019h-129v1019h-371z" />
<glyph unicode="&#x2021;" horiz-adv-x="1058" d="M94 874v117h371v443h129v-443h369v-117h-369v-278h289v-117h-289v-624h-129v624h-289v117h289v278h-371z" />
<glyph unicode="&#x2022;" horiz-adv-x="1122" d="M143 733q0 180 119 299t299 119t299 -119t119 -299t-119 -299t-299 -119t-299 119t-119 299z" />
<glyph unicode="&#x2026;" horiz-adv-x="1581" d="M131 90q0 45 30 75t75 30q43 0 72.5 -30t29.5 -75q0 -44 -29.5 -73t-72.5 -29q-45 0 -75 29t-30 73zM692 90q0 45 30 75t75 30q43 0 72.5 -30t29.5 -75q0 -44 -29.5 -73t-72.5 -29q-45 0 -75 29t-30 73zM1251 90q0 45 30 75t75 30q44 0 74 -29.5t30 -75.5q0 -44 -30 -73 t-74 -29q-45 0 -75 29t-30 73z" />
<glyph unicode="&#x202f;" horiz-adv-x="372" />
<glyph unicode="&#x2030;" horiz-adv-x="2336" d="M125 1155q0 123 91.5 213t217.5 90q123 0 214 -90t91 -213q0 -126 -91 -218.5t-214 -92.5q-126 0 -217.5 92.5t-91.5 218.5zM164 0l1149 1434h141l-1149 -1434h-141zM227 1153q0 -86 60.5 -146.5t146.5 -60.5q83 0 142 60.5t59 146.5q0 83 -59 143t-142 60 q-86 0 -146.5 -59.5t-60.5 -143.5zM879 285q0 123 91.5 213t217.5 90q123 0 214 -90t91 -213q0 -126 -91 -218t-214 -92q-126 0 -217.5 92t-91.5 218zM985 283q0 -83 59 -142t144 -59q82 0 139 59t57 142q0 82 -57 140t-139 58q-85 0 -144 -58t-59 -140zM1599 285 q0 123 92 213t218 90q123 0 214 -90t91 -213q0 -126 -91 -218t-214 -92q-126 0 -218 92t-92 218zM1706 283q0 -83 59 -142t144 -59q80 0 138 59t58 142q0 81 -58 139.5t-138 58.5q-85 0 -144 -58t-59 -140z" />
<glyph unicode="&#x2039;" horiz-adv-x="612" d="M100 573v109l394 313v-127l-308 -239l308 -242v-125z" />
<glyph unicode="&#x203a;" horiz-adv-x="612" d="M119 262v125l307 242l-307 239v127l393 -313v-109z" />
<glyph unicode="&#x2044;" horiz-adv-x="243" d="M-512 0l1151 1434h117l-1151 -1434h-117z" />
<glyph unicode="&#x205f;" horiz-adv-x="466" />
<glyph unicode="&#x20ac;" horiz-adv-x="1417" d="M23 524v109h157q-4 54 -4 84q0 63 8 112h-161v107h182q45 160 152 280t250 181t302 61q230 0 394 -108l-43 -113q-76 50 -157.5 74t-195.5 24q-122 0 -234.5 -47.5t-199.5 -139t-129 -212.5h780l-43 -107h-766q-8 -74 -8 -112q0 -30 4 -84h688l-43 -109h-622 q59 -197 221 -311.5t363 -114.5q119 0 205 27.5t175 89.5l5 -2v-127q-83 -56 -175.5 -83.5t-218.5 -27.5q-165 0 -311 65t-252.5 191t-146.5 293h-176z" />
<glyph unicode="&#x2122;" horiz-adv-x="1871" d="M94 1329v105h621v-105h-252v-768h-115v768h-254zM770 561l113 873h147l230 -672l225 672h147l117 -873h-117l-92 705l-233 -705h-90l-242 705l-82 -705h-123z" />
<glyph unicode="&#x2190;" horiz-adv-x="1808" d="M139 717q0 58 58 108l596 496h182l-656 -543h1362v-123h-1364l658 -544h-182l-596 495q-58 53 -58 111z" />
<glyph unicode="&#x2191;" horiz-adv-x="1482" d="M139 578l543 655v-1360h123v1362l543 -657v184l-494 596q-55 55 -113 55q-59 0 -106 -55l-496 -596v-184z" />
<glyph unicode="&#x2192;" horiz-adv-x="1808" d="M125 655v123h1362l-656 543h183l596 -496q57 -49 57 -108t-57 -111l-596 -495h-183l658 544h-1364z" />
<glyph unicode="&#x2193;" horiz-adv-x="1482" d="M139 672l494 -596q56 -56 112 -56q59 0 107 56l496 596v184l-541 -655v1360h-125v-1362l-543 657v-184z" />
<glyph unicode="&#x2196;" horiz-adv-x="1458" d="M193 244v774q0 81 36.5 117t118.5 36h772l121 -116h-840l965 -965l-88 -88l-967 965l2 -844z" />
<glyph unicode="&#x2197;" horiz-adv-x="1458" d="M98 94l965 965l-844 -2l123 121h772q82 0 119 -37t37 -119v-772l-119 -119v838l-967 -963z" />
<glyph unicode="&#x2198;" horiz-adv-x="1458" d="M94 1090l88 88l965 -965l-2 844l121 -123v-774q0 -82 -36 -118t-118 -36h-774l-121 119h840z" />
<glyph unicode="&#x2199;" horiz-adv-x="1458" d="M193 154v774l118 121v-840l967 962l88 -86l-967 -966l844 2l-121 -121h-774q-82 0 -118.5 36t-36.5 118z" />
<glyph unicode="&#x2212;" horiz-adv-x="1079" d="M94 676v117h889v-117h-889z" />
<glyph unicode="&#x2248;" horiz-adv-x="1079" d="M74 340q2 129 68 217t182 88q59 0 111.5 -20t91 -49t74 -58t75.5 -49t80 -20q63 0 96.5 44t36.5 121h115q-3 -126 -63 -206t-163 -80q-56 0 -107 20t-89 48.5t-74.5 57t-78.5 48.5t-85 20q-75 0 -115 -49.5t-43 -132.5h-112zM74 756q2 129 68 217t182 88 q59 0 111.5 -20.5t91 -49.5t74 -57.5t75.5 -49t80 -20.5q63 0 96.5 44.5t36.5 121.5h115q-3 -126 -63 -206.5t-163 -80.5q-56 0 -107 20t-89 48.5t-74.5 56.5t-78.5 48t-85 20q-75 0 -115 -48.5t-43 -131.5h-112z" />
<glyph unicode="&#x2260;" horiz-adv-x="1079" d="M94 414v116h324l155 271h-479v117h545l143 251h107l-144 -251h238v-117h-305l-154 -271h459v-116h-526l-152 -267h-104l151 267h-258z" />
<glyph unicode="&#x2264;" horiz-adv-x="1079" d="M111 207v115h888v-115h-888zM111 762v121l888 338v-121l-747 -277l747 -274v-123z" />
<glyph unicode="&#x2265;" horiz-adv-x="1079" d="M94 207v115h889v-115h-889zM94 426v123l748 274l-748 277v121l889 -338v-121z" />
<glyph unicode="&#x25fc;" horiz-adv-x="1064" d="M0 0v1065h1065v-1065h-1065z" />
<glyph horiz-adv-x="1570" d="M137 719q0 162 58 301.5t157 234.5t234 149t286 54q143 0 255.5 -37.5t213.5 -126.5v-149l-2 -2q-102 103 -213 145.5t-254 42.5q-121 0 -229 -43t-189.5 -120.5t-129.5 -193.5t-48 -253q0 -139 48.5 -257t130 -196t189.5 -122t228 -44q236 0 361 113v432l-559 -2v123 h678v-635q-186 -158 -484 -158q-150 0 -284 54.5t-233 151t-156.5 236.5t-57.5 302z" />
<glyph horiz-adv-x="1570" d="M137 719q0 162 58 301.5t157 234.5t234 149t286 54q143 0 255.5 -37.5t213.5 -126.5v-149l-2 -2q-102 103 -213 145.5t-254 42.5q-121 0 -229 -43t-189.5 -120.5t-129.5 -193.5t-48 -253q0 -139 48.5 -257t130 -196t189.5 -122t228 -44q236 0 361 113v432l-559 -2v123 h678v-635q-186 -158 -484 -158q-150 0 -284 54.5t-233 151t-156.5 236.5t-57.5 302zM567 1790h99q3 -64 49.5 -109t113.5 -45q68 0 114.5 45t51.5 109h97q-5 -104 -77.5 -174t-185.5 -70q-112 0 -184.5 70t-77.5 174z" />
<glyph horiz-adv-x="1570" d="M137 719q0 162 58 301.5t157 234.5t234 149t286 54q143 0 255.5 -37.5t213.5 -126.5v-149l-2 -2q-102 103 -213 145.5t-254 42.5q-121 0 -229 -43t-189.5 -120.5t-129.5 -193.5t-48 -253q0 -139 48.5 -257t130 -196t189.5 -122t228 -44q236 0 361 113v432l-559 -2v123 h678v-635q-186 -158 -484 -158q-150 0 -284 54.5t-233 151t-156.5 236.5t-57.5 302zM537 1548l227 240h149l232 -240h-139l-164 166l-166 -166h-139z" />
<glyph horiz-adv-x="1570" d="M137 719q0 162 58 301.5t157 234.5t234 149t286 54q143 0 255.5 -37.5t213.5 -126.5v-149l-2 -2q-102 103 -213 145.5t-254 42.5q-121 0 -229 -43t-189.5 -120.5t-129.5 -193.5t-48 -253q0 -139 48.5 -257t130 -196t189.5 -122t228 -44q236 0 361 113v432l-559 -2v123 h678v-635q-186 -158 -484 -158q-150 0 -284 54.5t-233 151t-156.5 236.5t-57.5 302zM711 -428q60 30 93 79t38 97q-8 -4 -29 -4q-33 0 -54.5 23t-21.5 57q0 32 25.5 56t62.5 24q40 0 64 -29t24 -78q0 -213 -202 -295v70z" />
<glyph horiz-adv-x="1607" d="M137 719q0 162 58 301.5t157 234.5t234 149t286 54q143 0 255.5 -37.5t213.5 -126.5v-149l-2 -2q-102 103 -213 145.5t-254 42.5q-121 0 -229 -43t-189.5 -120.5t-129.5 -193.5t-48 -253q0 -139 48.5 -257t130 -196t189.5 -122t228 -44q236 0 361 113v432l-559 -2v123 h678v-635q-186 -158 -484 -158q-150 0 -284 54.5t-233 151t-156.5 236.5t-57.5 302zM766 1663q0 49 33.5 80t83.5 31t83 -31t33 -80q0 -47 -33 -78t-83 -31t-83.5 31t-33.5 78z" />
<glyph horiz-adv-x="1316" d="M236 0v1434h438q230 0 358.5 -97.5t128.5 -302.5q0 -176 -98.5 -269t-267.5 -118l389 -647h-156l-377 637h-286v-637h-129zM365 752h294q56 0 102.5 5t99 23t88 47t59.5 81.5t24 123.5q0 81 -26.5 138t-78 89t-117 46t-153.5 14h-292v-567z" />
<glyph horiz-adv-x="1316" d="M236 0v1434h438q230 0 358.5 -97.5t128.5 -302.5q0 -176 -98.5 -269t-267.5 -118l389 -647h-156l-377 637h-286v-637h-129zM365 752h294q56 0 102.5 5t99 23t88 47t59.5 81.5t24 123.5q0 81 -26.5 138t-78 89t-117 46t-153.5 14h-292v-567zM524 1550l181 240h155 l-203 -240h-133z" />
<glyph horiz-adv-x="1316" d="M236 0v1434h438q230 0 358.5 -97.5t128.5 -302.5q0 -176 -98.5 -269t-267.5 -118l389 -647h-156l-377 637h-286v-637h-129zM336 1790h139l166 -166l164 166h139l-231 -240h-150zM365 752h294q56 0 102.5 5t99 23t88 47t59.5 81.5t24 123.5q0 81 -26.5 138t-78 89t-117 46 t-153.5 14h-292v-567z" />
<glyph horiz-adv-x="1316" d="M236 0v1434h438q230 0 358.5 -97.5t128.5 -302.5q0 -176 -98.5 -269t-267.5 -118l389 -647h-156l-377 637h-286v-637h-129zM365 752h294q56 0 102.5 5t99 23t88 47t59.5 81.5t24 123.5q0 81 -26.5 138t-78 89t-117 46t-153.5 14h-292v-567zM524 -428q61 30 94.5 79 t36.5 97q-8 -4 -26 -4q-33 0 -54.5 23t-21.5 57q0 32 25 56t61 24q41 0 65.5 -29t24.5 -78q0 -42 -9.5 -81t-31 -80t-63.5 -75.5t-101 -58.5v70z" />
<glyph horiz-adv-x="1292" d="M131 530q0 129 42.5 236.5t114.5 176.5t164.5 106.5t194.5 37.5t194.5 -37.5t164.5 -106.5t114.5 -176.5t42.5 -236.5t-42.5 -236t-114.5 -175.5t-164.5 -106t-194.5 -37.5t-194.5 37.5t-164.5 106t-114.5 175.5t-42.5 236zM258 530q0 -198 112.5 -317t276.5 -119 t276.5 119t112.5 317q0 197 -113 319t-276 122t-276 -122t-113 -319z" />
<glyph horiz-adv-x="1300" d="M139 532q0 157 55.5 283.5t156.5 199t229 72.5t225 -62.5t147 -188.5l4 227h117v-1063h-115l-4 229q-43 -116 -141.5 -185t-228.5 -69q-195 0 -320 154t-125 403zM266 528q0 -191 92.5 -317.5t243.5 -126.5q144 0 244 127.5t100 316.5q0 198 -95.5 322.5t-246.5 124.5 q-147 0 -242.5 -127t-95.5 -320z" />
<glyph horiz-adv-x="1300" d="M139 532q0 157 55.5 283.5t156.5 199t229 72.5t225 -62.5t147 -188.5l4 227h117v-1063h-115l-4 229q-43 -116 -141.5 -185t-228.5 -69q-195 0 -320 154t-125 403zM266 528q0 -191 92.5 -317.5t243.5 -126.5q144 0 244 127.5t100 316.5q0 198 -95.5 322.5t-246.5 124.5 q-147 0 -242.5 -127t-95.5 -320zM555 1188l186 293h150l-209 -293h-127z" />
<glyph horiz-adv-x="1300" d="M139 532q0 157 55.5 283.5t156.5 199t229 72.5t225 -62.5t147 -188.5l4 227h117v-1063h-115l-4 229q-43 -116 -141.5 -185t-228.5 -69q-195 0 -320 154t-125 403zM266 528q0 -191 92.5 -317.5t243.5 -126.5q144 0 244 127.5t100 316.5q0 198 -95.5 322.5t-246.5 124.5 q-147 0 -242.5 -127t-95.5 -320zM352 1464h113q5 -82 46 -132t112 -50t112.5 50t46.5 132h111q-3 -122 -77.5 -203t-192.5 -81q-116 0 -192 81.5t-79 202.5z" />
<glyph horiz-adv-x="1300" d="M139 532q0 157 55.5 283.5t156.5 199t229 72.5t225 -62.5t147 -188.5l4 227h117v-1063h-115l-4 229q-43 -116 -141.5 -185t-228.5 -69q-195 0 -320 154t-125 403zM266 528q0 -191 92.5 -317.5t243.5 -126.5q144 0 244 127.5t100 316.5q0 198 -95.5 322.5t-246.5 124.5 q-147 0 -242.5 -127t-95.5 -320zM340 1194l221 295h137l226 -295h-131l-160 203l-158 -203h-135z" />
<glyph horiz-adv-x="1300" d="M139 532q0 157 55.5 283.5t156.5 199t229 72.5t225 -62.5t147 -188.5l4 227h117v-1063h-115l-4 229q-43 -116 -141.5 -185t-228.5 -69q-195 0 -320 154t-125 403zM266 528q0 -191 92.5 -317.5t243.5 -126.5q144 0 244 127.5t100 316.5q0 198 -95.5 322.5t-246.5 124.5 q-147 0 -242.5 -127t-95.5 -320zM334 1358q0 41 26.5 66.5t67.5 25.5t66.5 -25.5t25.5 -66.5t-25.5 -66.5t-66.5 -25.5t-67.5 25.5t-26.5 66.5zM727 1358q0 41 26.5 66.5t67.5 25.5t67.5 -25.5t26.5 -66.5t-26.5 -66.5t-67.5 -25.5t-67.5 25.5t-26.5 66.5z" />
<glyph horiz-adv-x="1300" d="M139 532q0 157 55.5 283.5t156.5 199t229 72.5t225 -62.5t147 -188.5l4 227h117v-1063h-115l-4 229q-43 -116 -141.5 -185t-228.5 -69q-195 0 -320 154t-125 403zM266 528q0 -191 92.5 -317.5t243.5 -126.5q144 0 244 127.5t100 316.5q0 198 -95.5 322.5t-246.5 124.5 q-147 0 -242.5 -127t-95.5 -320zM383 1481h149l187 -293h-127z" />
<glyph horiz-adv-x="1300" d="M139 532q0 157 55.5 283.5t156.5 199t229 72.5t225 -62.5t147 -188.5l4 227h117v-1063h-115l-4 229q-43 -116 -141.5 -185t-228.5 -69q-195 0 -320 154t-125 403zM266 528q0 -191 92.5 -317.5t243.5 -126.5q144 0 244 127.5t100 316.5q0 198 -95.5 322.5t-246.5 124.5 q-147 0 -242.5 -127t-95.5 -320zM309 1253v115h609v-115h-609z" />
<glyph horiz-adv-x="1300" d="M139 532q0 157 55.5 283.5t156.5 199t229 72.5t225 -62.5t147 -188.5l4 227h117v-1063q-72 -34 -122 -88.5t-50 -116.5q0 -55 36.5 -86t92.5 -31q35 0 76 17v-72q-46 -14 -92 -14q-79 0 -134 42.5t-55 121.5q0 66 45.5 127t116.5 100h-29l-4 229q-43 -116 -141.5 -185 t-228.5 -69q-195 0 -320 154t-125 403zM266 528q0 -191 92.5 -317.5t243.5 -126.5q144 0 244 127.5t100 316.5q0 198 -95.5 322.5t-246.5 124.5q-147 0 -242.5 -127t-95.5 -320z" />
<glyph horiz-adv-x="1300" d="M139 532q0 157 55.5 283.5t156.5 199t229 72.5t225 -62.5t147 -188.5l4 227h117v-1063h-115l-4 229q-43 -116 -141.5 -185t-228.5 -69q-195 0 -320 154t-125 403zM266 528q0 -191 92.5 -317.5t243.5 -126.5q144 0 244 127.5t100 316.5q0 198 -95.5 322.5t-246.5 124.5 q-147 0 -242.5 -127t-95.5 -320zM438 1339q0 78 55 128.5t136 50.5q79 0 132.5 -50.5t53.5 -128.5t-53.5 -128t-132.5 -50q-81 0 -136 50t-55 128zM526 1339q0 -45 29 -73.5t74 -28.5q44 0 71 28.5t27 73.5t-27 74t-71 29q-45 0 -74 -29t-29 -74z" />
<glyph horiz-adv-x="1300" d="M139 532q0 157 55.5 283.5t156.5 199t229 72.5t225 -62.5t147 -188.5l4 227h117v-1063h-115l-4 229q-43 -116 -141.5 -185t-228.5 -69q-195 0 -320 154t-125 403zM266 528q0 -191 92.5 -317.5t243.5 -126.5q144 0 244 127.5t100 316.5q0 198 -95.5 322.5t-246.5 124.5 q-147 0 -242.5 -127t-95.5 -320zM315 1255v109q82 74 168 74q54 0 101 -23t89 -46t83 -23q72 0 151 79v-108q-81 -72 -159 -72q-48 0 -92 22.5t-87.5 45t-89.5 22.5q-84 0 -164 -80z" />
<glyph horiz-adv-x="993" d="M209 360h129v1074h-129v-1074zM215 1550l184 246h146l-207 -246h-123zM297 37v133q69 -66 158 -66q82 0 139 54t57 170v1106h129v-1129q0 -87 -24 -152.5t-66 -102.5t-91.5 -55t-106.5 -18q-115 0 -195 60zM657 1550l185 246h145l-207 -246h-123z" />
<glyph horiz-adv-x="761" d="M80 1028q0 186 82 304t219 118t217 -117.5t80 -304.5q0 -186 -80 -302t-217 -116q-139 0 -220 116t-81 302zM199 1028q0 -141 47 -224t135 -83q86 0 133 83.5t47 223.5q0 141 -47 226t-133 85q-88 0 -135 -84.5t-47 -226.5z" />
<glyph horiz-adv-x="499" d="M49 1116v127l246 191h90v-807h-111v673l-221 -184h-4z" />
<glyph horiz-adv-x="667" d="M92 1364q98 88 219 88q105 0 177.5 -63t72.5 -172q0 -38 -10 -75.5t-32.5 -76.5t-43 -70t-58.5 -72.5t-61.5 -65.5t-69.5 -69.5t-65 -64.5h361v-94h-488v100q25 26 76.5 76.5t75.5 75t62.5 66t57.5 67.5t40 59t29.5 61.5t8.5 55.5q0 72 -44 114t-113 42q-56 0 -105.5 -30 t-83.5 -75h-4z" />
<glyph horiz-adv-x="665" d="M94 690v113l4 2q80 -96 205 -96q76 0 125 37.5t49 101.5q0 73 -56.5 111t-146.5 38h-41v90h41q77 0 130 34.5t53 95.5q0 65 -46.5 101t-117.5 36q-112 0 -187 -84l-6 2v104q95 74 213 74q108 0 179 -56.5t71 -158.5q0 -75 -44.5 -124t-110.5 -64q80 -14 129 -70t49 -146 q0 -103 -75.5 -162t-195.5 -59q-135 0 -221 80z" />
<glyph horiz-adv-x="708" d="M63 797v108l355 529h121v-543h106v-94h-106v-170h-109v170h-367zM162 891h274l2 412z" />
<glyph horiz-adv-x="694" d="M74 713l57 94l4 2q74 -92 189 -92q67 0 118.5 44.5t51.5 119.5q0 81 -49 123.5t-115 42.5q-76 0 -131 -58l-84 31l59 414h381v-99h-301l-29 -225q58 35 133 35q106 0 178.5 -70.5t71.5 -193.5q-1 -124 -82.5 -197.5t-206.5 -73.5q-139 0 -245 103z" />
<glyph horiz-adv-x="722" d="M94 887q0 44 12 86.5t25 67t35 61.5l207 338h123l-211 -326q53 35 116 35q100 0 174 -71.5t74 -188.5q0 -114 -73.5 -196.5t-202.5 -82.5q-126 0 -202.5 82.5t-76.5 194.5zM203 883q0 -66 43 -122t127 -56q83 0 125.5 52.5t42.5 127.5t-47 125.5t-121 50.5 q-73 0 -121.5 -50.5t-48.5 -127.5z" />
<glyph horiz-adv-x="626" d="M63 1325v109h517v-95l-332 -712h-123l332 698h-394z" />
<glyph horiz-adv-x="718" d="M88 844q0 86 46.5 142.5t113.5 72.5q-57 15 -100.5 63t-43.5 119q0 92 70.5 150.5t187.5 58.5q118 0 188.5 -58.5t70.5 -150.5q0 -71 -43.5 -119t-100.5 -63q66 -16 113 -73.5t47 -141.5q0 -102 -77.5 -168t-199.5 -66q-121 0 -196.5 66t-75.5 168zM197 858 q0 -67 46 -110t117 -43q72 0 119 43t47 110q0 68 -45.5 113t-120.5 45q-72 0 -117.5 -45.5t-45.5 -112.5zM215 1225q0 -57 41 -93t106 -36t105.5 36t40.5 93q0 60 -41 99.5t-105 39.5t-105.5 -39.5t-41.5 -99.5z" />
<glyph horiz-adv-x="722" d="M82 1171q0 114 72.5 196.5t201.5 82.5q126 0 202.5 -82t76.5 -194q0 -44 -12 -86.5t-25 -68t-35 -61.5l-207 -337h-120l210 325q-56 -35 -118 -35q-100 0 -173 71.5t-73 188.5zM190 1176q0 -75 47 -126t119 -51q74 0 123 51.5t49 127.5q0 66 -44 122t-128 56 q-82 0 -124 -52.5t-42 -127.5z" />
<glyph horiz-adv-x="761" d="M80 100q0 186 82 304t219 118t217 -117.5t80 -304.5q0 -186 -80 -301.5t-217 -115.5q-139 0 -220 115.5t-81 301.5zM199 100q0 -141 47 -224t135 -83q86 0 133 83.5t47 223.5q0 141 -47 226.5t-133 85.5q-88 0 -135 -85t-47 -227z" />
<glyph horiz-adv-x="499" d="M49 188v127l246 191h90v-807h-111v674l-221 -185h-4z" />
<glyph horiz-adv-x="667" d="M92 436q98 88 219 88q105 0 177.5 -63t72.5 -172q0 -38 -10 -75.5t-32.5 -76.5t-43 -70t-58.5 -72.5t-61.5 -65.5t-69.5 -69.5t-65 -64.5h361v-94h-488v100q25 26 76.5 76.5t75.5 75t62.5 66t57.5 67.5t40 59t29.5 61.5t8.5 55.5q0 72 -44 114t-113 42q-56 0 -105.5 -30 t-83.5 -75h-4z" />
<glyph horiz-adv-x="665" d="M94 -125l4 2q80 -96 205 -96q76 0 125 37.5t49 101.5q0 73 -57 111.5t-146 38.5h-41v90h41q77 0 130 34t53 95q0 65 -46.5 101t-117.5 36q-112 0 -187 -84l-6 2v105q94 73 213 73q108 0 179 -56.5t71 -158.5q0 -75 -44.5 -124t-110.5 -64q80 -14 129 -69.5t49 -145.5 q0 -103 -75.5 -162t-195.5 -59q-136 0 -221 79v113z" />
<glyph horiz-adv-x="708" d="M63 -23l355 529h121v-543h106v-94h-106v-170h-109v170h-367v108zM162 -37h274l2 412z" />
<glyph horiz-adv-x="694" d="M74 -219l57 96h4q77 -92 189 -92q66 0 118 45.5t52 120.5q0 80 -48.5 122t-115.5 42q-75 0 -131 -56l-84 29l59 416h381v-98h-301l-29 -228q53 37 133 37q105 0 178 -71t72 -193q-1 -124 -82 -197t-207 -73q-139 0 -245 100z" />
<glyph horiz-adv-x="722" d="M94 -41q0 44 12 86.5t25 67t35 61.5l207 338h123l-211 -326q53 35 116 35q100 0 174 -71.5t74 -188.5q0 -114 -73.5 -196t-202.5 -82q-126 0 -202.5 82t-76.5 194zM203 -45q0 -66 43 -122t127 -56q83 0 125.5 52.5t42.5 127.5t-47 125.5t-121 50.5q-73 0 -121.5 -50.5 t-48.5 -127.5z" />
<glyph horiz-adv-x="626" d="M63 397v109h517v-94l-332 -713h-123l332 698h-394z" />
<glyph horiz-adv-x="718" d="M88 -84q0 86 46.5 142.5t113.5 72.5q-57 15 -100.5 63t-43.5 119q0 92 70.5 150.5t187.5 58.5q118 0 188.5 -58.5t70.5 -150.5q0 -71 -43.5 -119t-100.5 -63q66 -16 113 -73.5t47 -141.5q0 -102 -77.5 -167.5t-199.5 -65.5q-121 0 -196.5 65.5t-75.5 167.5zM197 -70 q0 -67 46 -110t117 -43q72 0 119 43t47 110q0 68 -45.5 113t-120.5 45q-72 0 -117.5 -45.5t-45.5 -112.5zM215 297q0 -57 41 -93t106 -36t105.5 36t40.5 93q0 60 -41 99.5t-105 39.5t-105.5 -39.5t-41.5 -99.5z" />
<glyph horiz-adv-x="722" d="M82 244q0 114 72.5 196t201.5 82q126 0 202.5 -82t76.5 -194q0 -44 -12 -86.5t-25 -67t-35 -61.5l-207 -338h-120l210 325q-55 -34 -118 -34q-100 0 -173 71.5t-73 188.5zM190 248q0 -75 46.5 -125.5t119.5 -50.5q74 0 123 51t49 127q0 66 -44 122t-128 56 q-82 0 -124 -52.5t-42 -127.5z" />
<glyph horiz-adv-x="761" d="M80 1329q0 186 82 304t219 118t217 -117.5t80 -304.5q0 -186 -80 -302t-217 -116q-139 0 -220 116t-81 302zM199 1329q0 -141 47 -224t135 -83q86 0 133 83.5t47 223.5q0 141 -47 226t-133 85q-88 0 -135 -84.5t-47 -226.5z" />
<glyph horiz-adv-x="499" d="M49 1417v127l246 191h90v-807h-111v674l-221 -185h-4z" />
<glyph horiz-adv-x="667" d="M92 1665q98 88 219 88q105 0 177.5 -63t72.5 -172q0 -38 -10 -75.5t-32.5 -76.5t-43 -70t-58.5 -72.5t-61.5 -65.5t-69.5 -69.5t-65 -64.5h361v-94h-488v100q25 26 76.5 76.5t75.5 75t62.5 66t57.5 67.5t40 59t29.5 61.5t8.5 55.5q0 72 -44 114t-113 42q-56 0 -105.5 -30 t-83.5 -75h-4z" />
<glyph horiz-adv-x="665" d="M94 991v113l4 2q80 -96 205 -96q76 0 125 37.5t49 101.5q0 73 -56.5 111t-146.5 38h-41v91h41q77 0 130 34t53 95q0 65 -46.5 101t-117.5 36q-112 0 -187 -84l-6 2v104q95 74 213 74q108 0 179 -56.5t71 -158.5q0 -75 -44.5 -124t-110.5 -64q80 -14 129 -69.5t49 -145.5 q0 -103 -75.5 -162.5t-195.5 -59.5q-135 0 -221 80z" />
<glyph horiz-adv-x="708" d="M63 1098v108l355 529h121v-543h106v-94h-106v-170h-109v170h-367zM162 1192h274l2 412z" />
<glyph horiz-adv-x="694" d="M74 1010l57 96h4q77 -92 189 -92q66 0 118 45.5t52 120.5q0 80 -48.5 121.5t-115.5 41.5q-76 0 -131 -55l-84 29l59 416h381v-99h-301l-29 -227q53 37 133 37q105 0 178 -71t72 -193q-1 -124 -82.5 -197.5t-206.5 -73.5q-138 0 -245 101z" />
<glyph horiz-adv-x="722" d="M94 1188q0 44 12 86.5t25 67t35 61.5l207 338h123l-211 -326q53 35 116 35q100 0 174 -71.5t74 -188.5q0 -114 -73.5 -196.5t-202.5 -82.5q-126 0 -202.5 82.5t-76.5 194.5zM203 1184q0 -66 43 -122t127 -56q83 0 125.5 52.5t42.5 127.5t-47 125.5t-121 50.5 q-73 0 -121.5 -50.5t-48.5 -127.5z" />
<glyph horiz-adv-x="626" d="M63 1626v109h517v-95l-332 -712h-123l332 698h-394z" />
<glyph horiz-adv-x="718" d="M88 1145q0 86 46.5 142.5t113.5 72.5q-57 15 -100.5 63t-43.5 119q0 92 70.5 150.5t187.5 58.5q118 0 188.5 -58.5t70.5 -150.5q0 -71 -43.5 -119t-100.5 -63q66 -16 113 -73.5t47 -141.5q0 -102 -77.5 -168t-199.5 -66q-121 0 -196.5 66t-75.5 168zM197 1159 q0 -67 46 -110t117 -43q72 0 119 43t47 110q0 68 -45.5 113t-120.5 45q-72 0 -117.5 -45.5t-45.5 -112.5zM215 1526q0 -57 41 -93t106 -36t105.5 36t40.5 93q0 60 -41 99.5t-105 39.5t-105.5 -39.5t-41.5 -99.5z" />
<glyph horiz-adv-x="755" d="M131 1473q0 114 73 196t202 82q126 0 203 -82t77 -194q0 -44 -12 -86.5t-25 -67t-35 -61.5l-206 -338h-123l211 325q-53 -35 -117 -35q-101 0 -174.5 72t-73.5 189zM240 1477q0 -75 47 -126t121 -51q72 0 121 51.5t49 127.5q0 66 -43.5 122t-128.5 56q-82 0 -124 -52.5 t-42 -127.5z" />
<glyph d="M82 717q0 217 59 384t172.5 262t266.5 95q152 0 265.5 -95t172.5 -262t59 -384q0 -220 -59.5 -387.5t-172.5 -261t-265 -93.5q-230 0 -364 204t-134 538zM215 717q0 -282 97 -447.5t268 -165.5q172 0 268 165t96 448q0 279 -96.5 445.5t-267.5 166.5q-170 0 -267.5 -167 t-97.5 -445z" />
<glyph d="M141 936v149l428 349h115v-1317h326v-117h-858v117h405v1157l-410 -340z" />
<glyph d="M158 0v150l278 274q65 63 95.5 93t83 84.5t78 86.5t59.5 80t49.5 85t27 82t11.5 89q0 138 -86 219.5t-217 81.5q-205 0 -355 -174l-4 2v158q157 147 371 147q185 0 307.5 -114.5t122.5 -303.5q0 -76 -20 -147t-49 -126.5t-85 -123.5t-104 -117t-131 -127l-287 -280h703 v-119h-848z" />
<glyph d="M154 127v160l6 2q149 -193 395 -193q139 0 230.5 78t91.5 219q0 144 -103 216.5t-280 72.5h-82v117h82q147 0 245.5 71t98.5 199q0 124 -87.5 195t-226.5 71q-96 0 -184.5 -40.5t-155.5 -120.5l-6 2v147q153 135 367 135q188 0 305 -98.5t117 -263.5q0 -129 -69.5 -217 t-186.5 -121q138 -35 217.5 -133t79.5 -252q0 -121 -62 -213t-161 -138.5t-216 -46.5q-137 0 -236.5 38t-178.5 114z" />
<glyph d="M72 328v100l678 1006h137v-992h196v-114h-196v-328h-125v328h-690zM221 442h549v809z" />
<glyph d="M100 199l88 96h7q141 -197 354 -197q63 0 123.5 21t112 62t83 109.5t31.5 153.5q0 89 -31.5 159.5t-82.5 111.5t-109 61.5t-117 20.5q-169 0 -283 -117l-98 47l101 707h649v-119l-547 2l-70 -483q104 79 271 79q86 0 165.5 -30t144 -86.5t103 -148.5t37.5 -206 q-1 -147 -68 -254.5t-175 -160t-240 -52.5q-139 0 -248 56t-201 168z" />
<glyph d="M106 455q0 79 23 156.5t48 123.5t67 111l379 588h147l-387 -584q99 70 248 70q85 0 163 -32t139 -89.5t97.5 -145.5t36.5 -192q0 -94 -30.5 -179.5t-87.5 -155.5t-151 -111.5t-210 -41.5q-112 0 -205 41t-152.5 109t-92 153.5t-32.5 178.5zM236 451q0 -47 11 -94.5 t37.5 -96t66 -86t101 -61t136.5 -23.5q88 0 156.5 31t109.5 84t61.5 118t20.5 138q0 154 -96.5 255t-247.5 101q-153 0 -254.5 -102.5t-101.5 -263.5z" />
<glyph d="M135 1309v125h887v-109l-627 -1325h-151l635 1309h-744z" />
<glyph d="M104 395q0 138 82.5 238.5t192.5 132.5q-91 30 -162.5 115t-71.5 204q0 161 121 267t316 106q194 0 316 -106.5t122 -266.5q0 -121 -66.5 -200.5t-173.5 -118.5q123 -39 199 -135.5t76 -237.5q0 -181 -131.5 -298.5t-345.5 -117.5q-211 0 -342.5 118t-131.5 300zM242 397 q0 -133 94 -219t242 -86q150 0 243.5 86t93.5 219q0 132 -90.5 222t-246.5 90q-154 0 -245 -90.5t-91 -221.5zM279 1079q0 -117 84.5 -190.5t218.5 -73.5q132 0 216.5 73.5t84.5 190.5q0 120 -84.5 196.5t-216.5 76.5q-133 0 -218 -76.5t-85 -196.5z" />
<glyph d="M106 973q0 93 32.5 179.5t91.5 155.5t153 110.5t207 41.5q115 0 208.5 -42t151.5 -111.5t88.5 -154t30.5 -173.5q0 -79 -24 -158t-46.5 -121t-66.5 -112l-373 -588h-149l376 575q-98 -61 -229 -61q-89 0 -170 32t-144 89.5t-100 145.5t-37 192zM238 973 q0 -154 96.5 -255.5t247.5 -101.5q152 0 254 103t102 264q0 60 -18.5 119t-56.5 115t-109 91t-164 35q-85 0 -154 -31t-111 -83.5t-64.5 -118t-22.5 -137.5z" />
<glyph horiz-adv-x="776" d="M88 403q0 186 81.5 303t217.5 117q137 0 218 -117t81 -303t-80.5 -301.5t-218.5 -115.5t-218.5 115.5t-80.5 301.5zM205 403q0 -141 47.5 -224t136.5 -83q86 0 133 83t47 224t-47 225.5t-133 84.5q-89 0 -136.5 -84t-47.5 -226z" />
<glyph horiz-adv-x="514" d="M57 492v124l246 191h88v-807h-108v674l-222 -182h-4z" />
<glyph horiz-adv-x="679" d="M100 2v100q25 25 77.5 76.5t76 75.5t63 66t58 67.5t40 58.5t30 61.5t8.5 55.5q0 72 -44.5 114t-113.5 42q-56 0 -105.5 -30t-83.5 -75h-6v123q98 88 217 88q106 0 178 -62.5t72 -172.5q0 -38 -9.5 -75.5t-32.5 -77t-42.5 -69.5t-58.5 -72.5t-61 -65.5t-69 -69.5 t-65 -64.5h361v-94h-490z" />
<glyph horiz-adv-x="679" d="M100 63v115h4q83 -96 207 -96q74 0 124 38.5t50 102.5q0 72 -56.5 111t-145.5 39h-41v88h41q76 0 129 34.5t53 96.5q0 65 -47 101t-117 36q-113 0 -188 -84h-4v105q91 73 213 73q108 0 178.5 -55.5t70.5 -157.5q0 -77 -44.5 -125t-110.5 -63q80 -14 129 -70t49 -145 q0 -104 -75.5 -162.5t-196.5 -58.5q-136 0 -222 77z" />
<glyph horiz-adv-x="722" d="M72 170v109l352 528h123v-543h106v-94h-106v-170h-109v170h-366zM170 264h274l2 412z" />
<glyph horiz-adv-x="708" d="M82 86l57 94l4 2q74 -92 187 -92q68 0 119 44.5t51 119.5q0 81 -48 123.5t-116 42.5q-78 0 -129 -58l-84 31l59 414h381v-98h-301l-31 -226q58 35 136 35q106 0 178 -70.5t71 -193.5q-1 -124 -82 -197t-206 -73q-141 0 -246 102z" />
<glyph horiz-adv-x="737" d="M102 262q0 62 19 111t53 104l207 336h123l-213 -324q53 33 119 33q100 0 172.5 -70.5t72.5 -187.5q0 -115 -72 -196.5t-202 -81.5q-127 0 -203 81.5t-76 194.5zM209 258q0 -66 44 -122t128 -56q82 0 124 52.5t42 127.5q0 73 -47 123.5t-119 50.5q-74 0 -123 -50t-49 -126 z" />
<glyph horiz-adv-x="641" d="M70 698v109h518v-94l-332 -713h-123l330 698h-393z" />
<glyph horiz-adv-x="733" d="M96 217q0 85 46 142t112 73q-54 16 -97.5 65t-43.5 119q0 92 70.5 149.5t187.5 57.5q118 0 188 -57.5t70 -149.5q0 -71 -44 -120t-100 -64q66 -14 112 -72t46 -143q0 -101 -76 -166t-198 -65q-121 0 -197 65.5t-76 165.5zM205 231q0 -66 46.5 -108.5t117.5 -42.5 t117 42.5t46 108.5q0 69 -44.5 113.5t-118.5 44.5t-119 -44.5t-45 -113.5zM221 600q0 -58 42 -93.5t106 -35.5q66 0 106.5 35.5t40.5 93.5q0 60 -40.5 98.5t-106.5 38.5q-63 0 -105.5 -38.5t-42.5 -98.5z" />
<glyph horiz-adv-x="737" d="M88 545q0 115 72 196.5t202 81.5q127 0 204 -81.5t77 -192.5q0 -103 -74 -217l-207 -336h-120l211 323q-48 -32 -119 -32q-100 0 -173 71.5t-73 186.5zM197 549q0 -73 46.5 -123.5t118.5 -50.5q74 0 123.5 50t49.5 126q0 66 -44 122t-129 56q-82 0 -123.5 -52.5 t-41.5 -127.5z" />
<glyph horiz-adv-x="534" d="M166 1343q0 -45 29.5 -73.5t74.5 -28.5t74 28.5t29 73.5t-29 74t-74 29t-74.5 -29t-29.5 -74zM203 -8h137l-12 1024h-115z" />
<glyph horiz-adv-x="921" d="M102 328q0 66 18 120.5t47 93.5t64 73.5t70.5 67t65 67.5t48.5 83t21 105v90h123v-102q-3 -66 -22.5 -122t-48.5 -94.5t-63.5 -72.5t-68.5 -65t-62 -63.5t-45.5 -76t-17.5 -94.5q0 -97 67.5 -162t164.5 -67q191 -3 289 192h4l106 -74q-133 -241 -397 -241 q-109 1 -193 48.5t-127 124t-43 169.5zM383 1358q0 46 29 75t73 29q46 0 75.5 -29t29.5 -75t-29.5 -74.5t-75.5 -28.5q-45 0 -73.5 28.5t-28.5 74.5z" />
<glyph horiz-adv-x="735" d="M80 688v129q79 0 128.5 37.5t49.5 112.5v442q0 132 72 196t205 64h47v-102h-50q-79 0 -122 -50t-43 -128v-439q0 -167 -164 -196q164 -25 164 -195v-457q0 -79 43 -128.5t122 -49.5h50v-104h-47q-132 0 -204.5 65t-72.5 197v459q0 74 -49 110.5t-129 36.5z" />
<glyph horiz-adv-x="735" d="M160 -76h49q80 0 124 49.5t44 128.5l-2 453q-5 173 164 199q-164 29 -164 200v435q0 78 -43.5 128t-122.5 50h-49v102h47q133 0 204.5 -64t71.5 -196v-438q0 -78 49.5 -116t129.5 -38v-129q-81 0 -130 -37t-49 -114v-455q0 -132 -72 -197t-204 -65h-47v104z" />
<glyph horiz-adv-x="636" d="M197 -172v1841h358v-102h-238v-1637h238v-102h-358z" />
<glyph horiz-adv-x="636" d="M80 -70h239v1637h-239v102h360v-1841h-360v102z" />
<glyph horiz-adv-x="772" d="M90 750q1 278 116 521t314 398h131q-212 -172 -324 -409.5t-112 -509.5q0 -274 111.5 -512t324.5 -410h-131q-199 155 -314 399t-116 523z" />
<glyph horiz-adv-x="772" d="M115 -172q214 173 328 411t114 511q0 270 -114 508t-328 411h137q199 -155 314 -398t116 -521q-1 -279 -116 -523t-314 -399h-137z" />
<glyph horiz-adv-x="2103" d="M94 655v117h1913v-117h-1913z" />
<glyph horiz-adv-x="1079" d="M94 655v117h889v-117h-889z" />
<glyph horiz-adv-x="804" d="M94 655v117h615v-117h-615z" />
<glyph horiz-adv-x="1157" d="M98 655v109l394 313v-127l-306 -239l306 -242v-125zM645 655v109l395 313v-127l-307 -239l307 -242v-125z" />
<glyph horiz-adv-x="1148" d="M115 344v125l307 242l-307 239v127l395 -313v-109zM653 344v125l308 242l-308 239v127l394 -313v-109z" />
<glyph horiz-adv-x="612" d="M100 655v109l394 313v-127l-308 -239l308 -242v-125z" />
<glyph horiz-adv-x="612" d="M121 344v125l307 242l-307 239v127l395 -313v-109z" />
<glyph horiz-adv-x="1972" d="M119 737q0 199 68 368t186 284t279.5 180t344.5 65q252 0 448 -110t305.5 -312.5t109.5 -466.5q0 -102 -25 -197t-71 -171.5t-120.5 -123t-164.5 -46.5q-122 0 -191.5 72t-62.5 202q-41 -101 -133.5 -169t-227.5 -68q-171 0 -263.5 142t-57.5 349q35 209 164 338t301 129 q111 0 186 -63.5t94 -165.5l35 188h102l-98 -586q-22 -127 26 -198.5t130 -71.5q86 0 148 67.5t90 164.5t28 208q0 177 -56.5 326t-156.5 250.5t-238.5 158t-300.5 56.5q-158 0 -297.5 -57.5t-241.5 -160t-161 -253.5t-59 -328q0 -185 58.5 -336t161.5 -250t241.5 -152.5 t299.5 -53.5q145 0 256 43v-113q-126 -35 -256 -35q-185 0 -346 63t-279.5 177t-186.5 283.5t-68 373.5zM662 725q-28 -165 33 -266t190 -101q127 0 223 102.5t121 264.5q26 166 -33.5 265.5t-185.5 99.5q-129 0 -224.5 -100t-123.5 -265z" />
<glyph horiz-adv-x="550" d="M96 1550l180 240h156l-203 -240h-133z" />
<glyph horiz-adv-x="745" d="M102 1790h99q3 -64 50 -109t114 -45t112.5 44.5t50.5 109.5h99q-5 -104 -77 -174t-185 -70q-112 0 -186 70.5t-77 173.5z" />
<glyph horiz-adv-x="806" d="M84 1790h139l166 -166l164 166h139l-231 -240h-150z" />
<glyph horiz-adv-x="774" d="M84 1548l227 240h150l231 -240h-139l-164 166l-166 -166h-139z" />
<glyph horiz-adv-x="774" d="M102 1661q0 42 26.5 68t68.5 26t68 -26t26 -68q0 -40 -26.5 -65t-67.5 -25t-68 25t-27 65zM496 1661q0 42 26 68t68 26q43 0 68.5 -25.5t25.5 -68.5q0 -40 -26 -65t-68 -25q-41 0 -67.5 25t-26.5 65z" />
<glyph horiz-adv-x="409" d="M94 1661q0 49 33.5 80t81.5 31q50 0 83.5 -31t33.5 -80q0 -47 -33.5 -78t-83.5 -31q-48 0 -81.5 31t-33.5 78z" />
<glyph horiz-adv-x="550" d="M98 1790h135l189 -240h-113z" />
<glyph horiz-adv-x="772" d="M92 1550l137 240h121l-151 -240h-107zM389 1550l139 240h121l-151 -240h-109z" />
<glyph horiz-adv-x="813" d="M102 1606v114h609v-114h-609z" />
<glyph horiz-adv-x="606" d="M119 1696q0 72 51 120t127 48q77 0 125.5 -47.5t48.5 -120.5t-48.5 -120.5t-125.5 -47.5q-76 0 -127 48t-51 120zM201 1696q0 -39 28 -68t68 -29q41 0 67.5 28.5t26.5 68.5q0 39 -26 66.5t-68 27.5q-41 0 -68.5 -27.5t-27.5 -66.5z" />
<glyph horiz-adv-x="790" d="M92 1606v108q85 76 168 76q43 0 82 -14.5t64 -31.5t59 -31.5t67 -14.5q76 0 152 80v-111q-81 -72 -158 -72q-39 0 -76 14.5t-61 32t-59.5 32t-71.5 14.5q-84 0 -166 -82z" />
<glyph horiz-adv-x="428" d="M129 1178l18 438h113l-37 -438h-94z" />
<glyph horiz-adv-x="1228" />
<glyph horiz-adv-x="1697" />
</font>
</defs>
</svg>
