<?xml version="1.0" standalone="no"?>
<!DOCTYPE svg PUBLIC "-//W3C//DTD SVG 1.1//EN" "http://www.w3.org/Graphics/SVG/1.1/DTD/svg11.dtd" >
<svg xmlns="http://www.w3.org/2000/svg">
<metadata></metadata>
<defs>
<font id="practice_display_regularRg" horiz-adv-x="1181" >
<font-face units-per-em="2048" ascent="1540" descent="-508" />
<missing-glyph horiz-adv-x="468" />
<glyph unicode="&#xfb00;" horiz-adv-x="1218" d="M922 786l2 -704l180 -78v-4h-453v4l105 76v706h-412l2 -712l156 -70v-4h-428v4l104 72v710h-135v5l135 83v7q0 111 36 211t101.5 175.5t157.5 121t209 45.5q100 0 163.5 -30t84.5 -69q57 57 132 90t167 33q68 0 116 -21.5t62 -60.5q0 -12 -10.5 -27.5t-24.5 -29.5 t-29.5 -23.5t-27.5 -9.5q-63 37 -101 56.5t-59.5 29.5t-31 12t-15.5 2q-37 0 -70.5 -17t-59.5 -64.5t-41 -130t-15 -213.5v-97h286l-34 -78h-252zM344 864h395l17 10q0 102 25.5 196.5t72.5 172.5q-53 39 -91 64.5t-69.5 41t-58.5 21.5t-53 6q-68 0 -114 -34.5t-73.5 -98 t-39 -150.5t-11.5 -194v-35z" />
<glyph unicode="&#xfb01;" horiz-adv-x="1101" d="M1040 4v-4h-372v4l102 72v712h-426l2 -710l150 -74v-4h-422v4l104 76v706h-135v5l137 86v8q0 111 35 215t101.5 186t160.5 131t213 49q53 0 99.5 -10t80 -27.5t52 -39t18.5 -46.5q0 -23 -28.5 -49t-59.5 -30q-27 16 -47.5 31.5t-38.5 29.5q-49 37 -88 59.5t-94 22.5 q-68 0 -114 -35t-73.5 -98.5t-40 -150.5t-12.5 -193v-66h453l121 49h22l-2 -188v-649z" />
<glyph unicode="&#xfb02;" horiz-adv-x="1099" d="M1042 4v-4h-372v4l102 72v710h-428l2 -710l152 -72v-4h-426v4l106 72v710h-137v5l137 83v11q4 111 38 214t97.5 183t154.5 128t210 48q66 0 105.5 -12t66.5 -27l72 25h22l-4 -189v-1179zM344 864h428v443q-16 14 -37.5 30.5t-46 31.5t-52.5 25.5t-56 10.5 q-45 0 -87 -17.5t-75 -70.5t-53.5 -150.5t-20.5 -257.5v-45z" />
<glyph unicode="&#xfb03;" horiz-adv-x="1679" d="M1618 4v-4h-373v4l103 72v712h-426l2 -710l149 -74v-4h-422v4l105 76v706h-412l2 -712l156 -70v-4h-428v4l104 72v710h-135v5l135 83v7q0 111 36 211t101.5 175.5t157.5 121t209 45.5q104 0 168.5 -32t81.5 -73q66 63 148.5 100t187.5 37q53 0 99 -10t80 -27.5t52.5 -39 t18.5 -46.5q0 -23 -29 -49t-59 -30q-27 16 -47.5 31.5t-39.5 29.5q-49 37 -87.5 59.5t-94.5 22.5q-68 0 -114 -35t-73.5 -98.5t-39.5 -150.5t-12 -193v-66h452l121 49h23l-2 -188v-649zM344 864h393l21 13v8q0 96 25.5 186t76.5 168q-53 41 -93 67.5t-71.5 42t-58.5 21.5 t-55 6q-68 0 -114 -34.5t-73.5 -98t-39 -150.5t-11.5 -194v-35z" />
<glyph unicode="&#xfb04;" horiz-adv-x="1677" d="M1620 4v-4h-373v4l103 72v710h-428l2 -710l151 -72v-4h-426v4l107 72v710h-412l2 -712l156 -70v-4h-428v4l104 72v710h-135v5l135 83v7q0 111 36 211t101.5 175.5t157.5 121t209 45.5q104 0 168.5 -32t81.5 -73q61 59 141 94t182 35q66 0 106 -12t66 -27l72 25h23 l-4 -189v-1179zM922 864h428v443q-16 14 -38 30.5t-46.5 31.5t-52 25.5t-56.5 10.5q-45 0 -87 -17.5t-74.5 -70.5t-53 -150.5t-20.5 -257.5v-45zM344 864h395l17 10v11q4 98 30.5 188t73.5 166q-53 41 -93 67.5t-71.5 42t-58.5 21.5t-55 6q-68 0 -114 -34.5t-73.5 -98 t-39 -150.5t-11.5 -194v-35z" />
<glyph unicode="fb" horiz-adv-x="1701" d="M678 1458q63 0 103 -11t67 -26l65 23h23l-4 -193v-458l37 20q63 35 135 63.5t137 28.5q74 0 143.5 -27.5t123 -82t86 -134t32.5 -186.5q0 -121 -41 -214t-112.5 -155.5t-168 -94t-206.5 -31.5q-63 0 -126 10t-116 20q-59 12 -98 17l6 260v499h-420l2 -710l180 -72v-4 h-454v4l106 72v710h-137v5l137 83v11q4 111 38 214t97.5 183t154.5 128t210 48zM932 338q0 -168 54 -241.5t167 -73.5q63 0 116.5 29.5t91.5 81.5t59.5 126t21.5 162q0 86 -22.5 157.5t-64.5 124t-101.5 82t-133.5 29.5q-70 0 -119 -28.5t-69 -47.5v-401zM344 864h420l2 449 q-33 29 -82 60.5t-104 31.5q-45 0 -87 -17.5t-75 -70.5t-53.5 -150.5t-20.5 -257.5v-45z" />
<glyph unicode="ffb" horiz-adv-x="2279" d="M1255 1458q63 0 103.5 -11t66.5 -26l66 23h22l-4 -193v-458l37 20q63 35 135 63.5t138 28.5q74 0 143.5 -27.5t122.5 -82t86 -134t33 -186.5q0 -121 -41 -214t-113 -155.5t-168 -94t-207 -31.5q-63 0 -125.5 10t-115.5 20q-59 12 -99 17l6 260v499h-419l2 -710l180 -72 v-4h-455v4l107 72v710h-412l2 -712l156 -70v-4h-428v4l104 72v710h-135v5l135 83v7q0 111 36 211t101.5 175.5t157.5 121t209 45.5q104 0 168.5 -32t81.5 -73q61 59 141 94t182 35zM1509 338q0 -168 54.5 -241.5t167.5 -73.5q63 0 116.5 29.5t91 81.5t59 126t21.5 162 q0 86 -22.5 157.5t-64.5 124t-101 82t-133 29.5q-70 0 -119 -28.5t-70 -47.5v-401zM344 864h395l17 10v11q4 98 30.5 188t73.5 166q-53 41 -93 67.5t-71.5 42t-58.5 21.5t-55 6q-68 0 -114 -34.5t-73.5 -98t-39 -150.5t-11.5 -194v-35zM922 864h419l2 449q-33 29 -82 60.5 t-104 31.5q-45 0 -87 -17.5t-74.5 -70.5t-53 -150.5t-20.5 -257.5v-45z" />
<glyph unicode="ffh" horiz-adv-x="2250" d="M1255 1458q66 0 106 -12t69 -27l69 25h23l-4 -189v-479h4q23 14 59.5 37t81.5 44.5t93 35.5t95 14q135 0 190.5 -69.5t55.5 -198.5v-563l107 -72v-4h-377v4l102 72v542q0 90 -57 142.5t-146 52.5q-82 0 -135 -32.5t-73 -57.5v-647l102 -72v-4h-373v4l103 72v710h-428 l2 -710l151 -72v-4h-426v4l107 72v710h-412l2 -712l156 -70v-4h-428v4l104 72v710h-135v5l135 83v7q0 111 36 211t101.5 175.5t157.5 121t209 45.5q104 0 168.5 -32t81.5 -73q61 59 141 94t182 35zM922 864h428v443q-16 14 -38 30.5t-46.5 31.5t-52 25.5t-56.5 10.5 q-45 0 -87 -17.5t-74.5 -70.5t-53 -150.5t-20.5 -257.5v-45zM344 864h395l17 10v11q4 98 30.5 188t73.5 166q-53 41 -93 67.5t-71.5 42t-58.5 21.5t-55 6q-68 0 -114 -34.5t-73.5 -98t-39 -150.5t-11.5 -194v-35z" />
<glyph unicode="tt" horiz-adv-x="1335" d="M1305 786h-320q0 -137 -2 -269t-2 -265q0 -92 42 -138t118 -46q57 0 102 21.5t66 35.5l8 -25q-37 -45 -107.5 -82.5t-154.5 -37.5q-72 0 -118 18t-73.5 51t-39 79t-11.5 99q0 41 1 97.5t2 121t2 132t3 131.5q0 16 1 36.5t1 40.5h-499q0 -137 -2.5 -269t-2.5 -265 q0 -92 42 -138t118 -46q57 0 102.5 21.5t65.5 35.5l8 -25q-37 -45 -107.5 -82.5t-154.5 -37.5q-72 0 -118 18t-73.5 51t-38.5 79t-11 99q0 41 1 97.5t2 121t2 132t3 131.5q0 16 1 36.5t1 40.5h-103v5l256 206h13l-4 -133h487l166 133h12l-4 -133h354z" />
<glyph unicode="RA" horiz-adv-x="2527" d="M2066 496h-448l-148 -400l189 -92v-4h-477q-39 0 -67 3t-51.5 14.5t-45 31t-47.5 51.5l-51 64q-66 82 -124.5 166t-101.5 151q-20 31 -39.5 61.5t-33.5 53.5l-205 6v-508l174 -90v-4h-514v4l160 90v1123l-164 90v4h184h80t80 2q47 2 98 3t107 1q98 0 168.5 -17.5 t117.5 -46.5q70 -43 103.5 -108.5t33.5 -147.5q0 -72 -24.5 -127t-61 -97t-83 -70.5t-89.5 -47.5v-4q20 -35 51 -79t66 -92t73 -99t75 -98q59 -78 119.5 -141.5t107.5 -92.5q8 -4 15 -8t18 -8l94 65l410 1061l-25 66q35 10 77 38.5t64 57.5h17l80 -219l382 -1016l148 -82v-4 h-522v4l186 80zM641 651q94 29 151.5 103.5t57.5 220.5q0 80 -24.5 137t-68.5 92t-104.5 51.5t-130.5 16.5q-27 0 -52.5 -2t-53.5 -6v-617zM1651 586h383l-191 499h-2z" />
<glyph unicode="KA" horiz-adv-x="2498" d="M2038 496h-449l-147 -400l188 -92v-4h-815v4l146 94l-492 553l537 557l-183 99v4h465v-4l-198 -99l-459 -463l563 -645l96 -59l86 57l410 1061l-25 66q35 10 77 38.5t65 57.5h16l80 -219l383 -1016l147 -82v-4h-522v4l186 80zM578 1307l-162 -90v-1123l162 -90v-4h-504v4 l162 90v1123l-162 90v4h504v-4zM1622 586h383l-190 499h-3z" />
<glyph unicode="TT" horiz-adv-x="2148" d="M702 94l203 -90v-4h-586v4l203 90v1159h-354l-121 -196h-39l53 297h37q8 -14 21 -25q10 -10 23.5 -17t29.5 -7h1841q12 0 25.5 7t23.5 17q12 10 25 25h37l-6 -297h-37l-80 196h-367v-1159l203 -90v-4h-586v4l203 90v1159h-752v-1159z" />
<glyph unicode="Th" horiz-adv-x="2082" d="M1182 1253h-480v-1159l203 -90v-4h-586v4l203 90v1159h-354l-121 -196h-39l53 297h37q8 -14 21 -25q10 -10 23.5 -17t29.5 -7h1010v86l149 53h23l-4 -189v-479h4q23 14 59.5 37t81.5 44.5t93 35.5t95 14q135 0 190.5 -69.5t55.5 -198.5v-563l107 -72v-4h-377v4l102 72 v542q0 90 -57 142.5t-145 52.5q-82 0 -135.5 -32.5t-73.5 -57.5v-647l102 -72v-4h-373v4l103 72v1177z" />
<glyph unicode="fh" horiz-adv-x="1673" d="M678 1458q66 0 105.5 -12t68.5 -27l70 25h22l-4 -189v-479h4q23 14 59.5 37t81.5 44.5t93.5 35.5t95.5 14q135 0 190.5 -69.5t55.5 -198.5v-563l106 -72v-4h-377v4l103 72v542q0 90 -57.5 142.5t-145.5 52.5q-82 0 -135 -32.5t-74 -57.5v-647l102 -72v-4h-372v4l102 72 v710h-428l2 -710l152 -72v-4h-426v4l106 72v710h-137v5l137 83v11q4 111 38 214t97.5 183t154.5 128t210 48zM344 864h428v443q-16 14 -37.5 30.5t-46 31.5t-52.5 25.5t-56 10.5q-45 0 -87 -17.5t-75 -70.5t-53.5 -150.5t-20.5 -257.5v-45z" />
<glyph unicode="fk" horiz-adv-x="1564" d="M1042 4v-4h-372v4l102 72v710h-428l2 -710l152 -72v-4h-426v4l106 72v710h-137v5l137 83v11q4 111 38 214t97.5 183t154.5 128t210 48q66 0 105.5 -12t66.5 -27l72 25h22l-4 -189v-1179zM344 864h428v443q-16 14 -37.5 30.5t-46 31.5t-52.5 25.5t-56 10.5 q-45 0 -87 -17.5t-75 -70.5t-53.5 -150.5t-20.5 -257.5v-45zM1585 -8q-43 -6 -90 -6q-72 0 -118 18.5t-95 79.5l-303 375v2l330 327l-152 84v5h406v-5l-181 -81l-266 -254q49 -61 105.5 -126t107.5 -124q47 -55 82 -97.5t63.5 -75t55 -60t55.5 -58.5v-4z" />
<glyph unicode="ft" horiz-adv-x="1277" d="M1247 786h-319q0 -137 -2 -269t-2 -265q-2 -92 41 -138t118 -46q57 0 102.5 21.5t65.5 35.5l9 -25q-37 -45 -108 -82.5t-155 -37.5q-72 0 -117.5 18t-73.5 51t-39 79t-11 99q0 41 1 97.5t2 121t2 132t3 131.5q0 16 1 36.5t1 40.5h-422l2 -710l180 -72v-4h-454v4l106 72 v710h-137v5l137 83v11q4 111 38 214t97.5 183t154.5 128t210 48q63 0 102 -11t68 -26l63 23h23l-4 -189l-2 -391h354zM344 864h410l12 10l2 437q-33 29 -82 61.5t-106 32.5q-45 0 -87 -17.5t-75 -70.5t-53.5 -150.5t-20.5 -257.5v-45z" />
<glyph unicode="fj" horiz-adv-x="1083" d="M344 788l2 -710l170 -74v-4h-442v4l104 76v706h-135v5l137 86v8q0 111 35 215t101.5 186t160.5 131t213 49q53 0 99.5 -10t80 -27.5t52 -39t18.5 -46.5q0 -23 -28.5 -49t-59.5 -30q-27 16 -47.5 31.5t-38.5 29.5q-49 37 -88 59.5t-94 22.5q-68 0 -114 -35t-73.5 -98.5 t-40 -150.5t-12.5 -193v-66h453l121 49h22l-2 -188v-522q0 -72 -3 -131.5t-13.5 -114.5t-30 -106.5t-53.5 -104.5q-53 -80 -132 -148.5t-174 -127.5l-22 28q82 55 133 116.5t80 139.5t38 176.5t9 227.5v630h-426z" />
<glyph unicode="&#x164;h" horiz-adv-x="2082" d="M834 1845l24 -14l-223 -422h-47l-221 422l26 14l219 -280zM1182 1253h-480v-1159l203 -90v-4h-586v4l203 90v1159h-354l-121 -196h-39l53 297h37q8 -14 21 -25q10 -10 23.5 -17t29.5 -7h1010v86l149 53h23l-4 -189v-479h4q23 14 59.5 37t81.5 44.5t93 35.5t95 14 q135 0 190.5 -69.5t55.5 -198.5v-563l107 -72v-4h-377v4l102 72v542q0 90 -57 142.5t-145 52.5q-82 0 -135.5 -32.5t-73.5 -57.5v-647l102 -72v-4h-373v4l103 72v1177z" />
<glyph horiz-adv-x="0" />
<glyph unicode="&#xd;" horiz-adv-x="0" />
<glyph horiz-adv-x="0" />
<glyph horiz-adv-x="0" />
<glyph unicode=" "  horiz-adv-x="468" />
<glyph unicode="&#x09;" horiz-adv-x="468" />
<glyph unicode="&#xa0;" horiz-adv-x="468" />
<glyph unicode="!" horiz-adv-x="505" d="M236 360q-10 96 -22.5 217l-25 242t-22.5 232.5t-16 189.5q4 23 35.5 33t66.5 10q37 0 66.5 -10t33.5 -33q-6 -78 -15 -189.5t-21.5 -232.5t-24.5 -241.5t-23 -217.5h-32zM135 88q0 49 34 83t83 34t84 -34t35 -83t-35 -82t-84 -33t-83 33t-34 82z" />
<glyph unicode="&#x22;" horiz-adv-x="690" d="M84 1421q12 16 37.5 23.5t56.5 7.5t58.5 -7t42.5 -24l-78 -452h-43zM414 1421q12 16 37.5 23.5t56.5 7.5t58.5 -7t41.5 -24l-78 -452h-43z" />
<glyph unicode="#" horiz-adv-x="1177" d="M647 381h-256l-117 -389h-73l116 389h-254l23 68h252l98 325h-250l23 68h248l110 362h74l-111 -362h256l111 362h74l-111 -362h254l-22 -68h-252l-99 -325h250l-22 -68h-248l-117 -389h-74zM412 449h256l98 325h-256z" />
<glyph unicode="$" horiz-adv-x="966" d="M76 305h41q12 -45 30 -86q16 -35 36 -74t44 -65q31 -23 82 -43.5t133 -20.5h25v535l-25 10q-70 33 -129 68t-102 78t-67.5 98t-24.5 129q0 141 97 227t251 109v221h70v-215h24q51 0 97.5 -5t86.5 -14l76 -10l15 -252h-39q-10 37 -23 72q-10 29 -25.5 60.5t-35.5 50.5 q-29 23 -73 38t-103 17v-520q2 -2 4 -2t6 -2l88 -41q113 -51 178.5 -127t65.5 -201q0 -74 -26 -133.5t-72 -104.5t-108.5 -74.5t-135.5 -41.5v-162h-70v151q-14 0 -27.5 -1t-25.5 -1q-59 0 -114.5 7.5t-102.5 17.5l-91 18zM285 1001q0 -84 41 -141t141 -112v479 q-90 -16 -136 -77t-46 -149zM711 268q0 92 -49.5 150.5t-124.5 99.5v-489q86 27 130 90t44 149z" />
<glyph unicode="%" horiz-adv-x="1640" d="M362 -41l840 1368h80l-840 -1368h-80zM549 993q0 51 -8.5 103.5t-27.5 94.5t-54 67.5t-86 25.5q-43 0 -73 -26.5t-49.5 -67.5t-28.5 -92t-9 -101q0 -49 8 -101t28.5 -94t54.5 -68.5t83 -26.5q45 0 76 27.5t50 69.5t27.5 92t8.5 97zM698 1001q0 -70 -23.5 -129t-66.5 -103 t-102.5 -68.5t-128.5 -24.5q-70 0 -127 23.5t-99 64.5t-65 99.5t-23 125.5q0 70 25 129.5t68 103.5t102 68.5t131 24.5q70 0 126 -23.5t97 -65.5t63.5 -99.5t22.5 -125.5zM1427 293q0 51 -8 103.5t-27.5 94t-54 67.5t-86.5 26q-43 0 -72.5 -27t-49 -67.5t-28.5 -92 t-9 -100.5t8 -101.5t28.5 -94.5t54.5 -68.5t83 -26.5q45 0 75.5 27.5t50 69.5t27.5 92.5t8 97.5zM1577 301q0 -70 -23.5 -129t-66.5 -103t-102.5 -69t-129.5 -25t-127 24t-99 64.5t-64.5 99t-22.5 126.5q0 70 24.5 129t67.5 103t102.5 68.5t131.5 24.5q70 0 126 -23.5 t97 -65.5t63.5 -99t22.5 -125z" />
<glyph unicode="&#x26;" horiz-adv-x="1613" d="M1561 121q-47 -78 -112 -118t-163 -40q-57 0 -99 16.5t-78 45t-65.5 67.5t-62.5 84l-41 60q-47 -53 -95 -101.5t-104.5 -84.5t-121 -57.5t-142.5 -21.5q-90 0 -163.5 29t-126 81t-81 123.5t-28.5 155.5t27.5 148.5t76.5 117t114.5 93.5t141.5 78q-35 25 -68.5 55.5 t-59 66t-41 76.5t-15.5 88q0 61 24.5 112.5t67.5 88.5t101.5 56.5t125.5 19.5q141 0 214 -63.5t73 -166.5q0 -53 -20.5 -94t-54 -74.5t-76.5 -60.5t-88 -51q104 -86 209.5 -199.5t191.5 -234.5q27 41 63.5 104.5t72.5 134t63.5 140t38.5 125.5l-132 59v4h457v-4l-162 -64 q-100 -115 -188 -257t-182 -283l43 -62q49 -66 85 -114.5t66.5 -81.5t61 -48.5t67.5 -15.5q61 0 97 26.5t71 63.5zM246 418q0 -70 25.5 -130.5t68.5 -104.5t100.5 -69.5t120.5 -25.5q117 0 198 52.5t154 138.5q-111 152 -215 268.5t-229 220.5v2q-47 -27 -88 -58.5 t-70.5 -73.5t-47 -96t-17.5 -124zM711 1130q0 82 -37 137.5t-113 55.5q-78 0 -115.5 -48t-37.5 -124q0 -96 55 -162.5t123 -118.5q59 45 92 108.5t33 151.5z" />
<glyph unicode="'" horiz-adv-x="358" d="M82 1421q12 16 37.5 23.5t58.5 7.5q31 0 57.5 -7t40.5 -24l-75 -452h-43z" />
<glyph unicode="(" horiz-adv-x="485" d="M381 -416q-63 94 -118.5 199.5t-95.5 220.5t-63.5 238t-23.5 252q0 117 22.5 228.5t62.5 222t97 224t125 234.5h41q-63 -154 -102 -276.5t-60.5 -230.5t-30 -205t-8.5 -197q0 -217 44 -452t151 -458h-41z" />
<glyph unicode=")" horiz-adv-x="485" d="M63 -416q106 223 150.5 457.5t44.5 452.5q0 100 -8 197t-29.5 205t-60.5 230.5t-103 276.5h41q68 -121 125.5 -234.5t97 -224t62.5 -222.5t23 -228q0 -129 -24 -252t-63.5 -238t-95 -220.5t-119.5 -199.5h-41z" />
<glyph unicode="*" horiz-adv-x="970" d="M403 889l-321 -49q-8 4 -10 13t2 19l303 117l-203 256q0 8 7 15.5t16 9.5l254 -205l120 305q18 8 31 -8l-49 -324l324 49q8 -4 10 -13t-2 -19l-305 -117l204 -256q0 -8 -7 -15.5t-15 -9.5l-256 205l-119 -305q-18 -8 -31 8z" />
<glyph unicode="+" horiz-adv-x="1009" d="M553 870v-381h389v-90h-389v-393h-98v393h-387v90h387v381h98z" />
<glyph unicode="," horiz-adv-x="479" d="M221 205q66 0 112 -54.5t46 -146.5q0 -59 -22.5 -106.5t-60.5 -84t-90 -62t-112 -40.5l-8 31q27 8 57.5 21.5t57 35t44 52t17.5 73.5q0 49 -33.5 74t-87.5 31q-10 6 -21 26.5t-11 48.5q0 41 29.5 71t82.5 30z" />
<glyph unicode="-" horiz-adv-x="776" d="M657 420h-538v96h538v-96z" />
<glyph unicode="." horiz-adv-x="454" d="M106 92q0 53 35 87t84 34q51 0 87 -34t36 -87q0 -51 -36 -85t-87 -34q-49 0 -84 34t-35 85z" />
<glyph unicode="/" horiz-adv-x="843" d="M57 -176l625 1606h102l-628 -1606h-99z" />
<glyph unicode="0" horiz-adv-x="1110" d="M1014 682q0 -188 -43 -322.5t-113 -221.5t-155 -128t-166 -41q-111 0 -194 57.5t-137 149.5t-82 210t-28 239q0 184 45 317t116 219t156 127t167 41q111 0 192.5 -56t136 -148.5t80 -208t25.5 -234.5zM819 676q0 102 -12 209.5t-42 195.5t-80 144.5t-126 56.5 q-61 0 -105 -35t-75 -90t-49.5 -127t-29.5 -144.5t-14 -141t-3 -119.5q0 -102 13 -210t44 -196t82 -145.5t129 -57.5q59 0 103 35t74 91.5t48.5 127t27.5 144t12 142.5t3 120z" />
<glyph unicode="1" horiz-adv-x="768" d="M47 1098l-8 14l469 217h12l-8 -121v-1114l258 -90v-4h-686v4l258 90v1051z" />
<glyph unicode="2" horiz-adv-x="1038" d="M41 29q127 111 234.5 215t185.5 200q98 119 157.5 239t59.5 237q0 59 -16.5 112t-49 92t-80 61.5t-108.5 22.5q-55 0 -100 -18.5t-82 -48t-66 -68.5t-53 -80l-35 23q18 57 53 113.5t87.5 101.5t121 72.5t154.5 27.5q82 0 149.5 -25.5t115.5 -72.5t74.5 -112.5 t26.5 -145.5q0 -96 -34.5 -181t-95 -165t-140.5 -158t-168 -160q-41 -39 -90 -86t-92 -90v-4h622l82 150h19l-35 -281h-893z" />
<glyph unicode="3" horiz-adv-x="1007" d="M547 741q59 0 125.5 -16t122 -54t92.5 -99.5t37 -149.5q0 -98 -43 -180t-115 -142.5t-165 -94.5t-191 -34q-82 0 -148.5 18.5t-114 47.5t-73 63.5t-25.5 69.5q0 29 20.5 52.5t67.5 23.5h13.5t15.5 -2l90 -189q25 -20 60.5 -32.5t95.5 -12.5q76 0 135 26.5t100 73 t62.5 109t21.5 133.5q0 76 -23.5 132.5t-64.5 93t-95 54t-114 17.5q-31 0 -59.5 -5t-59.5 -15l-8 43q80 25 145.5 56.5t112.5 73.5t73 94t26 120q0 96 -59.5 152.5t-166.5 56.5q-49 0 -89 -15.5t-72.5 -39t-58 -53.5t-46.5 -58l-35 33q18 37 51 79.5t81 77.5t112.5 58.5 t144.5 23.5q68 0 125.5 -18.5t99.5 -52t65.5 -82t23.5 -105.5q0 -59 -24.5 -107t-64.5 -88t-93.5 -73t-110.5 -57v-7z" />
<glyph unicode="4" horiz-adv-x="1054" d="M606 0v406h-581v77q160 213 323.5 423t337.5 421h94q-2 -59 -2 -116.5v-104.5v-574h232l-19 -126h-213v-406h-172zM606 879q0 117 2 174t2 98h-4q-57 -72 -119.5 -149.5t-125 -157.5t-121 -159t-109.5 -148v-5h475v347z" />
<glyph unicode="5" horiz-adv-x="966" d="M387 10q141 0 217 90t76 246q0 166 -128 262.5t-357 118.5l131 563h569l-37 -157h-520l-57 -246q115 -16 218 -50t182 -90.5t126 -140.5t47 -196q0 -86 -33 -166t-94 -140.5t-148 -96.5t-194 -36q-80 0 -145.5 18.5t-111.5 47.5t-70.5 63.5t-24.5 69.5q0 29 20.5 52.5 t67.5 23.5h13t16 -2l90 -189q23 -18 57.5 -31.5t89.5 -13.5z" />
<glyph unicode="6" horiz-adv-x="1050" d="M961 1307q-150 -37 -276 -114t-217 -186.5t-142.5 -249t-51.5 -300.5q0 -211 72 -327t201 -116q59 0 104 24.5t75 66.5t45 98.5t15 120.5q0 70 -16 129t-49 103t-82 69.5t-117 25.5q-49 0 -97 -18.5t-87 -52.5l-10 36q53 47 125.5 90.5t171.5 43.5q80 0 143 -27 t107.5 -74t68 -110.5t23.5 -139.5q0 -78 -29 -154.5t-84 -138t-137 -99.5t-191 -38q-104 0 -186 36t-138.5 101.5t-86 157.5t-29.5 205q0 139 44 256t116.5 211t165 166t188.5 121t189.5 77.5t166.5 36.5z" />
<glyph unicode="7" horiz-adv-x="976" d="M78 1290h895l8 -14l-690 -1311l-94 19l630 1153h-641l-90 -146h-49z" />
<glyph unicode="8" horiz-adv-x="1021" d="M750 258q0 92 -55.5 165t-153.5 130l-101 57q-94 -66 -137 -137.5t-43 -177.5q0 -123 66.5 -201t177.5 -78t178.5 66.5t67.5 175.5zM745 1030q0 117 -58 190.5t-165 73.5q-109 0 -169 -66.5t-60 -168.5q0 -98 58.5 -169t156.5 -132l72 -45q74 57 119.5 137t45.5 180z M907 1042q0 -61 -24.5 -110t-66.5 -91t-97 -77t-119 -68q68 -35 126 -73.5t101 -82.5t68 -95.5t25 -110.5q0 -78 -34 -144.5t-92.5 -114.5t-134 -76t-157.5 -28q-96 0 -172 26t-128 67.5t-80 97t-28 114.5q0 68 26.5 119t72 93t104.5 75t125 64q-63 37 -116.5 76.5 t-92.5 83.5t-60.5 96.5t-21.5 117.5q0 72 29.5 133.5t83 105.5t126 68.5t158.5 24.5q174 0 276.5 -78t102.5 -213z" />
<glyph unicode="9" horiz-adv-x="1050" d="M90 -10q150 37 276 113.5t217 186t142 248t51 302.5q0 211 -71.5 326.5t-200.5 115.5q-59 0 -104.5 -24.5t-75 -66.5t-45 -98.5t-15.5 -119.5q0 -70 16.5 -129.5t49 -103.5t82 -69.5t116.5 -25.5q49 0 97.5 18.5t87.5 53.5l10 -37q-53 -47 -126 -90t-171 -43 q-80 0 -143.5 26.5t-107.5 73.5t-67.5 110.5t-23.5 139.5q0 78 28.5 154.5t84 138t137.5 99.5t190 38q104 0 186.5 -36t138.5 -101.5t86 -157.5t30 -205q0 -139 -44 -255.5t-117 -211t-165 -166t-188.5 -120.5t-189.5 -78t-167 -37z" />
<glyph unicode=":" horiz-adv-x="479" d="M119 92q0 53 34.5 87t84.5 34q51 0 86.5 -34t35.5 -87q0 -51 -35.5 -85t-86.5 -34q-49 0 -84 34t-35 85zM119 729q0 53 34.5 87t84.5 34q51 0 86.5 -34t35.5 -87q0 -51 -35.5 -85t-86.5 -34q-49 0 -84 34t-35 85z" />
<glyph unicode=";" horiz-adv-x="534" d="M141 729q0 53 35 87t84 34q51 0 87 -34t36 -87q0 -51 -36 -85t-87 -34q-49 0 -84 34t-35 85zM252 205q66 0 112 -54.5t46 -146.5q0 -59 -22.5 -106.5t-60.5 -84t-90.5 -62t-111.5 -40.5l-8 31q27 8 57.5 21.5t57 35t44 52t17.5 73.5q0 49 -34 74t-87 31q-10 6 -21.5 26.5 t-11.5 48.5q0 41 30 71t83 30z" />
<glyph unicode="&#x3c;" horiz-adv-x="948" d="M844 942v-104l-651 -330v-4l651 -334v-104l-783 401v74z" />
<glyph unicode="=" horiz-adv-x="1107" d="M981 258h-854v84h854v-84zM981 561h-854v86h854v-86z" />
<glyph unicode="&#x3e;" horiz-adv-x="948" d="M887 541v-74l-783 -401v104l652 334v4l-652 330v104z" />
<glyph unicode="?" horiz-adv-x="714" d="M305 1313q55 0 111.5 -36t102.5 -96.5t76 -137t30 -156.5q0 -137 -53.5 -212t-168.5 -87l-47 -6q-51 -6 -84.5 -13.5t-54 -20.5t-29 -34.5t-8.5 -56.5q0 -23 3 -51.5t7 -57.5h-34q-10 29 -22.5 84t-12.5 125q0 98 39 143q18 20 43.5 28.5t75.5 12.5l65 7q55 6 100 14 t77 26.5t49.5 49t17.5 84.5q0 61 -32 99t-81 57.5t-109.5 26.5t-117.5 7q-10 10 -23.5 36t-13.5 66q0 41 21.5 70t72.5 29zM102 88q0 49 34 83t83 34t84 -34t35 -83t-35 -82t-84 -33t-83 33t-34 82z" />
<glyph unicode="@" horiz-adv-x="1703" d="M979 354l-8 2l-27 -37q-35 -47 -79 -100t-91 -98t-97 -75t-99 -30q-47 0 -78 42t-31 118q0 117 49 229.5t126 202.5t172 145.5t190 55.5q18 0 38.5 -2t36.5 -6t21 -4l22 55l99 2l-35 -129q-12 -45 -26.5 -102.5t-29 -117t-27.5 -116.5t-24 -104q-10 -51 -17 -89t-7 -59 q0 -31 13 -53.5t58 -22.5q82 0 155 43t127 118t86 175.5t32 216.5q0 119 -43 215.5t-117 165t-175 105.5t-218 37q-170 0 -307.5 -62.5t-234.5 -172t-150.5 -257t-53.5 -315.5q0 -121 40 -235.5t119 -206t198 -146.5t276 -55q88 0 163 17t137.5 45t113.5 64.5t90 73.5 l29 -26q-45 -47 -104.5 -89t-132.5 -74t-158 -50.5t-179 -18.5q-152 0 -286 42t-234 128t-158.5 217t-58.5 310q0 182 69.5 339.5t188.5 273.5t278.5 181.5t337.5 65.5q154 0 276 -44t206 -121t128 -181.5t44 -223.5q0 -135 -45 -247.5t-121 -192.5t-177.5 -124t-211.5 -44 q-72 0 -102.5 21.5t-30.5 66.5q0 63 30 174zM1067 711q-33 16 -76 32.5t-55 16.5q-57 0 -114.5 -46t-103.5 -121t-75 -171t-29 -197q0 -49 13.5 -80.5t44.5 -31.5q23 0 60.5 28.5t68.5 59.5q111 111 166 219t80 209z" />
<glyph unicode="A" horiz-adv-x="1239" d="M362 586h383l-190 499h-2zM778 496h-448l-148 -400l189 -92v-4h-410v4l156 94l409 1061l-24 66q35 10 77 38.5t64 57.5h16l80 -219l383 -1016l148 -82v-4h-522v4l186 80z" />
<glyph unicode="B" horiz-adv-x="1224" d="M53 0v4l187 90v1123l-187 90v4h285h86t88 2q39 2 75 2h64q199 0 306.5 -76t107.5 -221q0 -66 -22.5 -115t-59.5 -85t-83 -58.5t-91 -34.5v-4q68 -10 129 -36t106.5 -68t72 -100t26.5 -134q0 -94 -40 -167t-114 -123t-176 -75.5t-227 -25.5q-33 0 -73 1t-79 3 q-35 2 -64.5 3t-52.5 1h-264zM950 367q0 158 -104.5 229.5t-280.5 71.5q-45 0 -87 -2t-58 -7v-333q0 -72 4 -125.5t20 -87.5q12 -27 33 -42.5t44.5 -22.5t48 -9t46.5 -2q68 0 128.5 21.5t106.5 62.5t72.5 103.5t26.5 142.5zM881 999q0 129 -83 199t-239 70q-16 0 -36.5 -1 l-41 -2t-37 -3t-24.5 -5v-542q29 -2 47 -2h55q68 0 131.5 9t114.5 39t82 86t31 152z" />
<glyph unicode="C" horiz-adv-x="1353" d="M86 651q0 147 52 272.5t148.5 215.5t234.5 141t310 51q123 0 225.5 -17.5t205.5 -45.5l4 -281h-39q-12 45 -29 84q-14 35 -31.5 69t-33.5 52q-49 35 -124 61.5t-196 26.5q-123 0 -219 -43t-162.5 -121t-101.5 -186.5t-35 -239.5q0 -150 41 -272.5t114.5 -209.5t176 -134 t225.5 -47q92 0 159.5 23.5t116.5 64.5q18 16 40 50t40 68q23 39 43 86l37 -2l-49 -268q-109 -39 -206 -55.5t-208 -16.5q-168 0 -304 49.5t-233.5 138.5t-149.5 212.5t-52 273.5z" />
<glyph unicode="D" horiz-adv-x="1482" d="M319 1311q39 0 77 1t79 3q37 2 74 3t74 1q197 0 342 -48t241.5 -132t143.5 -201t47 -254q0 -139 -49.5 -265t-145.5 -221.5t-237.5 -151.5t-325.5 -56q-47 0 -100.5 2t-100.5 4q-35 2 -65.5 3t-65.5 1h-235v4l164 90v1123l-164 90v4h247zM416 424q0 -106 5 -180 t27.5 -120t68.5 -66.5t130 -20.5q123 0 224.5 45t172 126t109.5 192.5t39 244.5q0 156 -49 272.5t-135 194.5t-203 117t-250 39q-72 0 -139 -6v-838z" />
<glyph unicode="E" d="M35 4l217 90v1123l-207 90v4h776l205 6l8 -2l13 -271h-41l-99 218h-475v-560l473 5l51 161h41v-376h-41l-51 159l-473 2v-600l533 4l110 201h39l-41 -262h-10l-178 4h-850v4z" />
<glyph unicode="F" horiz-adv-x="1081" d="M37 1307v4h747l205 6l8 -2l13 -271h-41l-99 218h-446v-560l432 5l51 161h41v-376h-41l-51 159l-432 2v-555l223 -94v-4h-584v4l181 90v1123z" />
<glyph unicode="G" horiz-adv-x="1445" d="M1288 92q-41 -20 -91 -40.5t-110.5 -38t-134 -28t-161.5 -10.5q-154 0 -283 45.5t-222 131.5t-146.5 210.5t-53.5 284.5q0 152 53.5 278t152.5 216t239.5 140t314.5 50q66 0 120 -5t103 -13t96 -19.5t103 -25.5l4 -281h-41q-10 43 -25 80q-12 33 -28.5 66.5t-34.5 56.5 q-47 33 -123 61.5t-191 28.5q-129 0 -229 -43t-169 -123t-104.5 -191.5t-35.5 -248.5q0 -152 38 -272.5t108.5 -204.5t169 -129t218.5 -45q121 0 196 44t99 103v270l-196 92v5h503v-5l-139 -92v-348z" />
<glyph unicode="H" horiz-adv-x="1572" d="M1499 1307l-162 -90v-1123l162 -90v-4h-504v4l162 90v551h-741v-551l162 -90v-4h-504v4l162 90v1123l-162 90v4h504v-4l-162 -90v-515h741v515l-162 90v4h504v-4z" />
<glyph unicode="I" horiz-adv-x="651" d="M578 1307l-162 -90v-1123l162 -90v-4h-504v4l162 90v1123l-162 90v4h504v-4z" />
<glyph unicode="J" horiz-adv-x="647" d="M86 1307v4h496v-4l-156 -90v-1029q0 -143 -34 -252.5t-91 -187.5q-63 -88 -147 -133t-172 -45q-33 0 -64 6t-53.5 16.5t-36.5 22.5t-14 27q0 27 23.5 55.5t51.5 32.5q82 -41 134.5 -63.5t82.5 -22.5q14 0 32 7t35 25.5t31.5 49t24.5 79.5q8 45 12.5 110t4.5 169v1133z " />
<glyph unicode="K" horiz-adv-x="1284" d="M1352 4v-4h-537v4l146 94l-492 553l537 557l-183 99v4h465v-4l-198 -99l-459 -463l563 -645zM578 1307l-162 -90v-1123l162 -90v-4h-504v4l162 90v1123l-162 90v4h504v-4z" />
<glyph unicode="L" horiz-adv-x="1112" d="M946 57l115 222h39l-45 -283h-11l-178 4h-833v4l211 90v1123l-162 90v4h504v-4l-162 -90v-1164z" />
<glyph unicode="M" horiz-adv-x="1728" d="M270 1219l-194 88v4h370l15 -103l403 -936h4l418 938l12 101h361v-4l-186 -86l36 -1127l162 -90v-4h-500v4l158 90l-22 748q-4 92 -4 162.5t2 109.5h-7q-10 -27 -37.5 -96.5t-72.5 -167.5l-320 -711l-45 -139h-39l-45 139l-350 793q-8 18 -18.5 42.5t-20.5 51.5t-18 49.5 t-13 36.5h-6q2 -37 2 -74v-72.5t-2 -80.5l-30 -772l186 -109v-4h-424v4l174 109z" />
<glyph unicode="N" horiz-adv-x="1503" d="M1278 1200l-6 -1233h-43l-770 922q-47 57 -83 102t-61 78h-4v-205l-2 -751l193 -109v-4h-430v4l174 109l8 1015l-86 103l-127 76v4h303l694 -840q20 -25 48 -57.5t52.5 -63.5t44 -56.5t27.5 -37.5h4q-2 55 -2 110.5v114.5l2 719l-174 107v4h402v-4z" />
<glyph unicode="O" horiz-adv-x="1554" d="M764 -27q-160 0 -286 53.5t-213 143.5t-133 212t-46 259q0 147 54.5 273t149.5 218.5t226 144.5t285 52q166 0 291 -54t208.5 -145.5t125.5 -212t42 -253.5q0 -152 -55 -278t-150.5 -218t-223.5 -143.5t-275 -51.5zM819 29q102 0 184 43t139.5 120.5t88.5 186t31 239.5 q0 139 -36 259t-103.5 208.5t-166 138.5t-223.5 50q-94 0 -175 -41t-140.5 -116t-93 -179t-33.5 -231q0 -147 34.5 -271.5t101.5 -214.5t165 -141t227 -51z" />
<glyph unicode="P" horiz-adv-x="1093" d="M635 4v-4h-561v4l162 90v1123l-162 90v4h225q63 0 129 2t96 2q100 0 186.5 -11.5t153.5 -46.5q84 -43 136.5 -121.5t52.5 -191.5q0 -102 -42 -177t-111 -125t-159 -73.5t-188 -23.5v24q166 33 237.5 122t71.5 245t-90 246t-260 90q-27 0 -56.5 -2t-39.5 -6v-1168z" />
<glyph unicode="Q" horiz-adv-x="1554" d="M764 -27q-160 0 -286 53.5t-213 143.5t-133 212t-46 259q0 147 54.5 273t149.5 218.5t226 144.5t285 52q166 0 291 -54t208.5 -145.5t125.5 -212t42 -253.5q0 -115 -32.5 -217.5t-91 -185.5t-140.5 -144.5t-180 -98.5q104 -68 225 -132t264 -130q106 -47 193.5 -80.5 t162.5 -55t141.5 -32t129.5 -10.5q117 0 224.5 32t218.5 87l10 -35q-55 -35 -121 -68.5t-140.5 -59.5t-157.5 -41t-175 -15q-141 0 -296 47t-309.5 119.5t-301 159.5t-269.5 169l-4 2q-14 0 -27.5 -1t-27.5 -1zM819 29q102 0 184 43t139.5 120.5t88.5 186t31 239.5 q0 139 -36 259t-103.5 208.5t-166 138.5t-223.5 50q-94 0 -175 -41t-140.5 -116t-93 -179t-33.5 -231q0 -147 34.5 -271.5t101.5 -214.5t165 -141t227 -51z" />
<glyph unicode="R" horiz-adv-x="1286" d="M590 4v-4h-514v4l160 90v1123l-164 90v4h184h80t80 2q47 2 98 3t107 1q98 0 168.5 -17.5t117.5 -46.5q70 -43 103.5 -108.5t33.5 -147.5q0 -72 -24.5 -127t-61 -97t-83 -70.5t-89.5 -47.5v-4q20 -35 51 -79t66 -92t73 -99t75 -98q59 -78 119.5 -141.5t107.5 -92.5 q14 -10 32.5 -16t35.5 -10q18 -6 36 -9v-14h-200q-39 0 -67 3t-51.5 14.5t-45 31t-47.5 51.5l-51 64q-66 82 -124.5 166t-101.5 151q-20 31 -39.5 61.5t-33.5 53.5l-205 6v-508zM641 651q94 29 151.5 103.5t57.5 220.5q0 80 -24.5 137t-68.5 92t-104.5 51.5t-130.5 16.5 q-27 0 -52.5 -2t-53.5 -6v-617z" />
<glyph unicode="S" horiz-adv-x="989" d="M92 319h41q12 -47 31 -90q16 -37 35.5 -76.5t44.5 -68.5q31 -25 82 -45.5t133 -20.5q63 0 113.5 20.5t85 56.5t52 83t17.5 103q0 55 -17.5 98t-48 76.5t-72.5 61.5t-89 50l-41 19q-70 33 -129.5 68.5t-102.5 80.5t-67.5 102.5t-24.5 135.5q0 84 34 150.5t93.5 112.5 t140 69.5t175.5 23.5q51 0 97 -5t87 -13l76 -11l14 -262h-39q-10 39 -22 76q-10 31 -25.5 61.5t-36.5 51.5q-29 25 -76 41t-112 16q-117 0 -178.5 -67.5t-61.5 -172.5q0 -51 14.5 -92t45 -75.5t81 -68.5t121.5 -69l88 -43q113 -53 178.5 -132t65.5 -210q0 -92 -37 -162.5 t-100.5 -119.5t-148.5 -74t-179 -25q-59 0 -114.5 7.5t-102.5 17.5l-90 20z" />
<glyph unicode="T" horiz-adv-x="1216" d="M168 1253l-121 -196h-39l53 297h37q8 -14 21 -25q10 -10 23.5 -17t29.5 -7h909q12 0 25.5 7t23.5 17q12 10 25 25h37l-6 -297h-37l-80 196h-367v-1159l203 -90v-4h-586v4l203 90v1159h-354z" />
<glyph unicode="U" horiz-adv-x="1437" d="M381 571q0 -133 14.5 -217t44.5 -145q45 -90 125 -130t203 -40q98 0 170 28.5t121 84.5q53 61 79.5 153t26.5 236v659l-174 107v4h402v-4l-160 -107v-637q0 -141 -25.5 -251.5t-85 -187.5t-156 -117t-237.5 -40t-240.5 32t-164 102.5t-94 185t-29.5 280.5v650l-152 90v4 h494v-4l-162 -90v-646z" />
<glyph unicode="V" horiz-adv-x="1212" d="M672 248l370 964l-153 95v4h366v-4l-147 -93l-420 -1073l-61 -164h-60l-55 160l-395 1075l-144 95v4h508v-4l-164 -95l-2 -2l351 -962h6z" />
<glyph unicode="W" horiz-adv-x="1792" d="M1225 246l395 966l-154 95v4h367v-4l-147 -93l-447 -1073l-61 -164h-56l-55 160l-158 383l-172 -379l-61 -164h-55l-56 160l-467 1075l-143 95v4h504v-4l-164 -95l-2 -2l424 -964h6l158 344l-256 622l-144 95v4h494v-4l-154 -95l-2 -2l176 -426l193 428l-154 95v4h367v-4 l-148 -93l-231 -497l197 -471h6z" />
<glyph unicode="X" horiz-adv-x="1212" d="M653 764l322 442l-170 101v4h403v-4l-159 -99l-363 -493l416 -621l141 -90v-4h-514v4l160 92l-322 484l-346 -476l185 -100v-4h-431v4l175 105l385 518l-394 585l-155 95v4h526v-4l-162 -93z" />
<glyph unicode="Y" d="M131 1212l-156 95v4h519v-4l-168 -95l327 -579h6l326 579l-160 95v4h385v-4l-159 -95l-371 -653v-461l199 -94v-4h-576v4l199 94v459z" />
<glyph unicode="Z" horiz-adv-x="1249" d="M238 1255l-99 -243h-45l17 348h49q6 -14 14 -25q8 -10 18.5 -17t22.5 -7h959v-27l-156 -201l-733 -1024v-4l741 2l129 226h43l-47 -287h-10l-178 4h-920v27l164 211l735 1017v7z" />
<glyph unicode="[" horiz-adv-x="606" d="M586 1395v-35l-275 -19v-1693l275 -19v-35h-406v1801h406z" />
<glyph unicode="\" horiz-adv-x="831" d="M672 -176l-613 1606h105l608 -1606h-100z" />
<glyph unicode="]" horiz-adv-x="606" d="M426 1395v-1801h-406v35l275 19v1693l-275 19v35h406z" />
<glyph unicode="^" horiz-adv-x="1017" d="M948 473h-121l-319 633l-315 -633h-123l391 766h96z" />
<glyph unicode="_" horiz-adv-x="1019" d="M1020 -297h-1020v76h1020v-76z" />
<glyph unicode="`" horiz-adv-x="880" d="M240 1372q-10 18 3 40t35.5 36t47 18t36.5 -10l203 -418l-22 -14z" />
<glyph unicode="a" horiz-adv-x="884" d="M711 -33q-63 8 -101.5 37t-60.5 68h-2l-78 -37q-37 -18 -84 -36.5t-109 -18.5q-100 0 -158.5 52t-58.5 130q0 61 29 101t70 61q35 16 81 33.5t98 35t106.5 32.5t103.5 30l2 190q4 182 -180 182q-41 0 -65.5 -9t-41.5 -19l-10 -97l-143 -51q-12 0 -19.5 10.5t-7.5 22.5 q0 20 27 47q37 35 82 66.5t94 55.5t97 37t91 13q131 0 187.5 -54t54.5 -147l-13 -561l170 -94zM545 418l-43 -15q-53 -16 -98.5 -30.5t-77.5 -28.5q-57 -25 -77 -58.5t-20 -80.5q0 -72 40 -113t108 -41q57 0 104 23.5t60 50.5z" />
<glyph unicode="b" horiz-adv-x="1077" d="M16 1346v2l273 96h22l-4 -193v-458l37 20q63 35 135 63.5t137 28.5q74 0 143.5 -27.5t123 -82t86 -134t32.5 -186.5q0 -121 -40.5 -214t-112.5 -155.5t-168 -94t-207 -31.5q-63 0 -125.5 10t-116.5 20q-59 12 -98 17l6 260l2 1013zM307 338q0 -168 54.5 -241.5 t166.5 -73.5q63 0 116.5 29.5t91.5 81.5t59.5 126t21.5 162q0 86 -22.5 157.5t-64.5 124t-101.5 82t-132.5 29.5q-70 0 -119 -28.5t-70 -47.5v-401z" />
<glyph unicode="c" horiz-adv-x="876" d="M827 786q0 -29 -28.5 -54t-48.5 -34l-232 162q-119 0 -193.5 -93t-74.5 -284q0 -92 24.5 -166.5t68.5 -127t103.5 -81t128.5 -28.5q80 0 138.5 37t91.5 80l22 -35q-70 -82 -153.5 -132t-206.5 -50q-80 0 -151.5 28.5t-125 83.5t-84 134t-30.5 180q0 117 39 210 t106.5 157.5t156.5 99t189 34.5q66 0 115 -14t81 -33.5t48 -40.5t16 -33z" />
<glyph unicode="d" horiz-adv-x="1101" d="M938 1251v-1161l135 -18v-4l-262 -99l-31 8l-8 117l-20 -12q-68 -41 -151 -69.5t-155 -28.5t-137 28.5t-117.5 83t-83 134t-30.5 182.5q0 119 40 210t110.5 154.5t165.5 96t204 32.5q55 0 99 -7t77 -17l-4 419l-123 43v5l273 96h22zM772 551q0 154 -61.5 230.5 t-173.5 76.5q-59 0 -109.5 -28.5t-87.5 -80t-57.5 -122t-20.5 -154.5q0 -90 24.5 -163.5t67.5 -127t103.5 -83t132.5 -29.5q66 0 114 27.5t68 56.5v397z" />
<glyph unicode="e" horiz-adv-x="903" d="M256 606q-4 -27 -6 -53.5t-2 -52.5q0 -82 20.5 -158t61.5 -134t102.5 -93t145.5 -35q92 0 147 35t96 80l21 -33q-68 -74 -158 -128t-217 -54q-80 0 -150.5 29.5t-124 85t-84 135t-30.5 182.5q0 113 33.5 204t93 155.5t139.5 100t170 35.5q152 0 230.5 -75.5t82.5 -208.5 l-20 -33zM655 641v8q0 43 -10 82t-31.5 68.5t-54.5 48t-76 18.5q-92 0 -146 -63.5t-75 -161.5h393z" />
<glyph unicode="f" horiz-adv-x="641" d="M344 786l2 -704l180 -78v-4h-452v4l104 76v706h-137v5l137 83q0 117 33 222.5t93.5 185.5t148.5 128t198 48q68 0 116 -21.5t62 -60.5q0 -12 -10 -27.5t-24.5 -29.5t-29.5 -23.5t-28 -9.5q-63 37 -101 56.5t-59.5 29.5t-30.5 12t-16 2q-37 0 -70.5 -17t-59 -64.5 t-41 -130t-15.5 -213.5v-97h287l-35 -78h-252z" />
<glyph unicode="g" horiz-adv-x="968" d="M963 788h-226v-6q16 -23 38 -60.5t22 -105.5q0 -78 -30 -139t-81 -102t-118.5 -62.5t-143.5 -21.5q-29 0 -49.5 3t-42.5 7l-62 -53q-14 -23 -14 -47q0 -51 41 -73t96 -22h293q115 0 188.5 -60t73.5 -175q0 -78 -44 -148.5t-115.5 -123t-162.5 -83t-188 -30.5 q-82 0 -150.5 16.5t-117.5 47t-75.5 74.5t-26.5 100q0 39 21.5 72.5t57 63t81.5 55.5t94 48v4q-90 2 -145.5 44t-55.5 110q0 39 18 76l154 108v4q-35 14 -71 39t-65.5 58.5t-48 78.5t-18.5 103q0 70 27.5 128t77 99t117 64.5t147.5 23.5q49 0 92 -9t61 -13h351v-93z M827 -211q0 98 -62.5 139t-148.5 41l-239 -2q-25 -10 -51.5 -28.5t-50 -44t-38 -58.5t-14.5 -74q0 -49 22.5 -89t61.5 -66.5t93.5 -41t117.5 -14.5q135 0 222 62.5t87 175.5zM635 578q0 57 -12.5 109t-38 92t-63.5 63.5t-89 23.5q-84 0 -130 -67.5t-46 -171.5 q0 -61 14.5 -114.5t41 -94.5t63.5 -64.5t84 -23.5q84 0 130 68.5t46 179.5z" />
<glyph unicode="h" horiz-adv-x="1060" d="M35 1346v2l274 96h23l-4 -189v-479h4q23 14 59.5 37t81.5 44.5t93 35.5t96 14q135 0 190 -69.5t55 -198.5v-563l107 -72v-4h-377v4l102 72v542q0 90 -57 142.5t-145 52.5q-82 0 -135.5 -32.5t-73.5 -57.5v-647l102 -72v-4h-373v4l103 72v1224z" />
<glyph unicode="i" horiz-adv-x="507" d="M446 4v-4h-372v4l102 72v680l-125 45v2l273 110h22l-2 -188v-649zM164 1305q0 43 29.5 74.5t76.5 31.5t77 -31.5t30 -74.5q0 -41 -30 -72t-77 -31t-76.5 31t-29.5 72z" />
<glyph unicode="j" horiz-adv-x="475" d="M37 801v2l272 110h23l-2 -188v-522q0 -72 -3 -131.5t-13.5 -114.5t-30 -106.5t-54.5 -104.5q-53 -80 -132 -148.5t-173 -127.5l-22 28q82 55 133 116.5t79.5 139.5t38 176.5t9.5 227.5v598zM147 1305q0 43 30 74.5t77 31.5t76.5 -31.5t29.5 -74.5q0 -41 -29.5 -72 t-76.5 -31t-77 31t-30 72z" />
<glyph unicode="k" horiz-adv-x="952" d="M973 -8q-43 -6 -90 -6q-72 0 -118 18.5t-95 79.5l-303 375v2l329 327l-151 84v5h405v-5l-180 -81l-266 -254q49 -61 105.5 -126t107.5 -124q47 -55 82 -97.5t63.5 -75t55 -60t55.5 -58.5v-4zM430 4v-4h-373v4l103 72v1224l-125 46v2l274 96h23l-4 -189v-1179z" />
<glyph unicode="l" horiz-adv-x="487" d="M430 4v-4h-373v4l103 72v1224l-125 46v2l274 96h23l-4 -189v-1179z" />
<glyph unicode="m" horiz-adv-x="1650" d="M45 799v4l268 110h25v-137h4q23 14 59.5 37t81.5 44.5t93.5 35.5t95.5 14q98 0 152.5 -36.5t76.5 -108.5l21 14q23 14 59.5 37t81.5 44.5t93 35.5t95 14q135 0 190.5 -69.5t55.5 -198.5v-563l107 -72v-4h-377v4l102 72v542q0 90 -57.5 142.5t-145.5 52.5 q-78 0 -135 -32.5t-80 -59.5q6 -37 7 -82v-563l106 -72v-4h-377v4l103 72v542q0 90 -57.5 142.5t-145.5 52.5q-82 0 -135.5 -32.5t-73.5 -57.5v-647l102 -72v-4h-372v4l102 72v680z" />
<glyph unicode="n" horiz-adv-x="1071" d="M45 799v4l268 110h25v-137h4q23 14 59.5 37t81.5 44.5t93.5 35.5t95.5 14q135 0 190.5 -69.5t55.5 -198.5v-563l106 -72v-4h-377v4l103 72v542q0 90 -57.5 142.5t-145.5 52.5q-82 0 -135.5 -32.5t-73.5 -57.5v-647l102 -72v-4h-372v4l102 72v680z" />
<glyph unicode="o" horiz-adv-x="1073" d="M76 446q0 98 34.5 183.5t96 147t146.5 96t188 34.5q104 0 188 -34.5t143.5 -96t92 -146.5t32.5 -186q0 -98 -33.5 -183t-95 -147.5t-147.5 -98t-191 -35.5q-106 0 -190 34.5t-142.5 96t-90 147.5t-31.5 188zM500 862q-59 0 -102.5 -29.5t-72 -80t-43 -115t-14.5 -133.5 q0 -92 19.5 -179t56.5 -154t92.5 -107.5t126.5 -40.5q61 0 107.5 30.5t77 82.5t46 119t15.5 140q0 92 -19.5 176t-58.5 148.5t-97 103.5t-134 39z" />
<glyph unicode="p" horiz-adv-x="1097" d="M510 -18q-59 0 -109.5 9t-72.5 17v-430l211 -82v-4h-482v4l105 76v1184l-125 43v4l268 110h25v-129l28 19q59 39 134 70.5t147 31.5q80 0 149.5 -29.5t122 -85t82 -136.5t29.5 -181q0 -123 -43 -215t-113.5 -153.5t-163 -92t-192.5 -30.5zM330 307q0 -135 65.5 -207.5 t159.5 -72.5q61 0 113.5 28.5t90.5 80.5t58.5 124t20.5 160q0 84 -22.5 156.5t-64.5 126t-100.5 83t-130.5 29.5q-59 0 -111.5 -26.5t-78.5 -55.5v-426z" />
<glyph unicode="q" horiz-adv-x="1087" d="M774 -424v516h-2l-20 -12q-68 -41 -151 -68.5t-155 -27.5t-137 28.5t-117.5 83t-83 134t-30.5 182.5q0 119 40 210t110.5 154.5t165.5 96t204 32.5q78 0 147.5 -15.5t122.5 -37.5l68 76h16l-12 -271v-1085l102 -76v-4h-448v4zM772 551q0 154 -61.5 230.5t-173.5 76.5 q-59 0 -109.5 -28.5t-87.5 -80t-57.5 -122t-20.5 -154.5q0 -90 24.5 -163.5t67.5 -127t103.5 -83t132.5 -29.5q66 0 114 27.5t68 56.5v397z" />
<glyph unicode="r" horiz-adv-x="710" d="M506 4v-4h-438v4l102 72v680l-125 45v2l268 110h23v-159h2q20 25 47 51t58.5 49t66.5 38t72 15q47 0 80.5 -22.5t39.5 -55.5q-4 -23 -32.5 -58.5t-55.5 -53.5h-16l-14 10q-29 20 -63 42t-68 22q-33 0 -54.5 -12.5t-34 -30t-18.5 -37t-8 -33.5v-600z" />
<glyph unicode="s" horiz-adv-x="745" d="M121 250q12 -47 31.5 -94t56.5 -90q27 -25 60.5 -38.5t80.5 -13.5q90 0 129 48.5t39 113.5q0 33 -10 58.5t-29.5 46t-47.5 38l-60 37.5l-99 60q-78 47 -123 102t-45 141q0 57 25 102.5t68 78t100 50t123 17.5q76 0 130 -12t87 -29l8 -213h-37q-14 61 -29.5 99.5 t-43.5 70.5q-23 20 -49.5 33.5t-75.5 13.5q-80 0 -121 -42t-41 -101t30.5 -99t110.5 -87l78 -45q47 -29 84 -54.5t61.5 -54.5t38 -62.5t13.5 -78.5q0 -59 -24 -108.5t-64.5 -85.5t-98 -55.5t-127.5 -19.5q-94 0 -155.5 18.5t-90.5 35.5l-26 217z" />
<glyph unicode="t" horiz-adv-x="673" d="M643 786h-319q0 -137 -2.5 -269t-2.5 -265q-2 -92 41 -138t119 -46q57 0 102.5 21.5t65.5 35.5l8 -25q-37 -45 -107.5 -82.5t-154.5 -37.5q-72 0 -118 18t-73.5 51t-38.5 79t-11 99q0 41 1 97.5t2 121t2 132t3 131.5q0 16 1 36.5t1 40.5h-103v5l256 206h13l-4 -133h354z " />
<glyph unicode="u" horiz-adv-x="1038" d="M158 807l-121 65v5l270 4l19 -2l-4 -127v-492q0 -90 50 -144.5t136 -54.5q74 0 130 31t75 70v645l-150 65v5l301 4l19 -2l-4 -127v-662l129 -18v-4l-256 -99l-31 6l-10 121h-2q-72 -47 -159 -85t-167 -38q-111 0 -169 60.5t-58 171.5z" />
<glyph unicode="v" horiz-adv-x="917" d="M514 176l236 615l-125 81v5h301v-5l-113 -81l-281 -699l-43 -108l-71 -9l-322 822l-96 75v5h399v-5l-125 -75z" />
<glyph unicode="w" horiz-adv-x="1429" d="M1034 176l228 615l-125 81v5h301v-5l-113 -81l-272 -699l-43 -108l-70 -9l-223 596l-189 -479l-43 -108l-69 -9l-320 822l-96 75v5h397v-5l-125 -75l238 -621l182 467l-59 154l-111 75v5h412v-5l-125 -75z" />
<glyph unicode="x" horiz-adv-x="909" d="M416 360l-213 -280l135 -76v-4h-330v4l127 74l250 323l-270 396l-109 75v5h418v-5l-117 -75l187 -273l206 273l-125 75v5h316v-5l-125 -73l-242 -314l279 -405l112 -76v-4h-430v4l121 76z" />
<glyph unicode="y" horiz-adv-x="929" d="M528 166l232 620l-127 86v5h303v-5l-113 -84q-10 -29 -33.5 -89t-53 -138t-64.5 -165t-67 -170t-59.5 -154.5t-43.5 -116.5l-86 -229q-23 -59 -41.5 -110.5t-32.5 -80.5q-12 -27 -36.5 -46t-65.5 -19q-47 0 -71 23.5t-24 57.5q0 35 26 59.5t73 24.5q43 0 71 -18l127 332 l-346 860l-96 63v5h418v-5l-135 -73z" />
<glyph unicode="z" horiz-adv-x="888" d="M807 872v-20l-119 -168l-428 -641l399 4q29 18 55.5 51t47.5 66q23 37 45 82h37l-64 -250l-211 4h-293l-227 -2v20l129 172l422 635l-399 -6q-20 -14 -37 -45t-29 -63q-14 -37 -24 -80h-37l12 280h39q4 -10 12 -18q6 -8 14.5 -14.5t18.5 -10.5l367 -2z" />
<glyph unicode="{" horiz-adv-x="602" d="M-2 510q72 6 116 29.5t67.5 63.5t30.5 93.5t7 120.5v34.5t-1 49.5t-1 76v113q0 94 25.5 153.5t72.5 94t114 48t151 13.5v-27q-70 -8 -113 -35.5t-67.5 -70.5t-33 -100.5t-8.5 -123.5q0 -51 2 -104t2 -113q0 -74 -12 -128t-40.5 -93t-77 -64.5t-119.5 -39.5v-4 q72 -16 120 -42t76.5 -66t40.5 -94t12 -128q0 -59 -2 -114.5t-2 -106.5q0 -66 8.5 -123.5t33 -100.5t67.5 -70.5t113 -35.5v-27q-84 0 -151 13.5t-114 48.5t-72.5 94t-25.5 154v113.5t1 76.5t1 50.5v35.5q0 68 -7 121t-30.5 91t-67.5 61.5t-116 29.5v33z" />
<glyph unicode="|" horiz-adv-x="458" d="M180 1491h99v-1667h-99v1667z" />
<glyph unicode="}" horiz-adv-x="602" d="M604 477q-72 -6 -116 -29.5t-67.5 -61.5t-30.5 -91t-7 -121v-35.5t1 -50.5t1 -77v-113q0 -94 -25.5 -153.5t-72.5 -94.5t-115 -48.5t-149 -13.5v27q70 8 112.5 35.5t67 70.5t33 100.5t8.5 123.5q0 51 -2 106t-2 115q0 74 12 128t41 94t77 65.5t119 42.5v4 q-72 14 -119.5 39.5t-76.5 64.5t-41 93.5t-12 127.5q0 59 2 112.5t2 104.5q0 66 -8.5 123.5t-33 100.5t-67.5 70.5t-112 35.5v27q82 0 149.5 -13.5t114.5 -48t72.5 -94t25.5 -153.5v-113t-1 -76t-1 -49v-35q0 -68 7 -121t30.5 -93t67.5 -63.5t116 -29.5v-33z" />
<glyph unicode="~" horiz-adv-x="1116" d="M991 563q-16 -31 -38.5 -65.5t-53.5 -65.5t-68.5 -50.5t-87.5 -19.5q-59 0 -111 20.5t-100 47.5q-43 23 -87 41t-91 18q-33 0 -56.5 -11t-41.5 -31.5t-33.5 -47t-29.5 -57.5l-64 57q12 31 34.5 66t54.5 65.5t74 50t97 19.5q66 0 121 -23.5t104 -50.5q41 -23 79 -38 t73 -15q55 0 93 43t69 107z" />
<glyph unicode="&#xa1;" horiz-adv-x="471" d="M220 523.021q-10 -95.9941 -22.5 -216.986t-25 -241.985q-12.5 -120.992 -22.5 -232.485t-16 -189.488q4 -22.999 35.5 -32.998q31.5 -10 66.5 -10q37 0 66.5 10q29.5 9.99902 33.5 32.998q-6 77.9951 -15 189.488t-21.5 232.485q-12.5 120.993 -24.5 241.485 q-12 120.493 -23 217.486h-32zM119 795.006q0 -48.9971 34 -82.9951t83 -33.998t84 33.998t35 82.9951q0 48.9961 -35 81.9941t-84 32.998t-83 -32.998t-34 -81.9941z" />
<glyph unicode="&#xa2;" horiz-adv-x="929" d="M831 786q0 -29 -28.5 -54t-48.5 -34l-121 84l-232 -647q76 -55 179 -55q80 0 138 37t91 80l22 -35q-70 -82 -153.5 -132t-206.5 -50q-63 0 -119 18l-102 -289h-66l111 309q-96 47 -155.5 146.5t-59.5 241.5q0 117 39 210t106.5 157.5t156.5 99t189 34.5h19.5t19.5 -2 l95 264h67l-98 -274q80 -18 118.5 -53.5t38.5 -55.5zM254 483q0 -98 25.5 -174t72.5 -129l228 639l-58 41q-119 0 -193.5 -93.5t-74.5 -283.5z" />
<glyph unicode="&#xa3;" horiz-adv-x="1105" d="M154 602l14 53h199q14 96 25 156.5t28 116.5q25 88 65.5 162.5t94 127t120 82t142.5 29.5q80 0 124 -27.5t48 -64.5q-2 -16 -13.5 -30.5t-25.5 -27t-28.5 -19.5t-24.5 -7q-12 10 -24.5 20.5t-23.5 20.5q-35 31 -66.5 56.5t-49.5 25.5q-68 0 -108 -76t-66 -227 q-10 -47 -15.5 -88t-11.5 -76q-6 -39 -13 -77t-16 -77h318l-12 -53h-316q-25 -133 -74 -230.5t-141 -181.5l2 -2q10 4 41 11.5t72 7.5q43 0 76.5 -10.5t62.5 -26.5t53.5 -35.5t46.5 -36.5q41 -31 79 -56.5t79 -25.5q29 0 47.5 9.5t28.5 22.5t14 27.5t4 24.5q0 8 -12 35 t-51 105q4 27 23.5 46t52.5 19q35 0 58.5 -25.5t23.5 -72.5q0 -39 -19.5 -84t-56.5 -83t-91.5 -62.5t-123.5 -24.5q-68 0 -125.5 31.5t-110.5 70.5q-49 39 -97 67t-101 28q-23 -25 -41.5 -48.5t-38 -43t-40 -32t-44.5 -12.5q-23 0 -38.5 15.5t-15.5 38.5q0 41 31 57t72 33 l90 32q25 39 42 92.5t29.5 108.5t20.5 110.5t12 100.5h-204z" />
<glyph unicode="&#xa4;" horiz-adv-x="1122" d="M793 289q-47 -35 -107.5 -54.5t-126.5 -19.5q-131 0 -233 74l-111 -113l-76 76l109 110q-37 49 -57.5 109.5t-20.5 128.5q0 66 20.5 126t57.5 110l-109 110l76 76l109 -113q49 35 108.5 55.5t126.5 20.5q68 0 127 -20.5t109 -55.5l112 111l76 -76l-113 -110 q37 -49 57.5 -108.5t20.5 -125.5q0 -68 -20.5 -128t-57.5 -107l113 -111l-76 -76zM276 600q0 -59 21.5 -111.5t58.5 -91.5t89.5 -61.5t113.5 -22.5t112.5 22.5t89.5 61.5t59.5 91.5t21.5 111.5q0 57 -21.5 109.5t-59.5 92.5t-89 62.5t-113 22.5q-61 0 -113.5 -22.5 t-90.5 -62.5t-58.5 -92.5t-20.5 -109.5z" />
<glyph unicode="&#xa5;" horiz-adv-x="1245" d="M188 494h351v49l-97 170h-254v59h222l-191 344l-156 103v4h494v-4l-164 -103l279 -500h6l285 500l-160 103v4h379v-4l-160 -103l-197 -344h226v-59h-260l-95 -166v-53h355v-60h-355v-328l205 -102v-4h-567v4l205 102v328h-351v60z" />
<glyph unicode="&#xa6;" horiz-adv-x="450" d="M176 1491h98v-614h-98v614zM176 438h98v-614h-98v614z" />
<glyph unicode="&#xa7;" horiz-adv-x="907" d="M602 1329q104 0 161.5 -31.5t57.5 -83.5q0 -35 -29.5 -58t-58.5 -26q-16 14 -30.5 27.5t-28.5 26.5q-41 37 -78 61.5t-88 24.5q-82 0 -117 -56.5t-35 -132.5q0 -100 57.5 -193t135.5 -196l76 -102q37 -51 72.5 -104.5t63 -113t45 -124t17.5 -137.5q0 -121 -49 -211 t-124 -150.5t-166 -90.5t-175 -30q-41 0 -82 7.5t-73.5 23.5t-53 40t-20.5 58q0 37 25.5 60.5t54.5 27.5q18 -16 31.5 -29.5t27.5 -25.5q47 -45 84 -74.5t94 -29.5q84 0 122 56t38 142q0 41 -13.5 81t-36 81t-53 84t-65.5 92l-88 123q-49 68 -88 126t-66.5 117.5t-43 122 t-15.5 136.5q0 111 43 200t114.5 151.5t164 96t192.5 33.5zM190 874q0 -66 17.5 -126t47.5 -117.5t70 -112.5t83 -112l67 -91q72 -94 120 -186t48 -186q0 -84 -25 -142l7 -2q51 59 74.5 127t23.5 162q0 66 -18.5 127t-50 121.5t-73.5 121t-89 124.5l-58 77q-82 111 -122 194 t-40 175q0 66 23 123l-6 2q-51 -59 -75 -124t-24 -155z" />
<glyph unicode="&#xa8;" horiz-adv-x="729" d="M84 1227q0 41 27.5 68.5t66.5 27.5t67.5 -27.5t28.5 -68.5t-28.5 -67.5t-67.5 -26.5t-66.5 26.5t-27.5 67.5zM446 1227q0 41 28 68.5t67 27.5t67.5 -27.5t28.5 -68.5t-28.5 -67.5t-67.5 -26.5t-67 26.5t-28 67.5z" />
<glyph unicode="&#xa9;" horiz-adv-x="1662" d="M393 606q0 94 34 175t97.5 140.5t153.5 92.5t203 33q80 0 147.5 -10.5t134.5 -32.5l4 -189l-26 -4q-10 29 -23 55q-10 23 -23.5 46.5t-23.5 35.5q-33 20 -79 39t-124 19t-138 -28t-101 -77t-63.5 -118.5t-22.5 -151.5q0 -96 25.5 -174t72.5 -134.5t110.5 -87t141.5 -30.5 q49 0 97 14t79 39q12 10 26.5 31.5t26.5 46.5q14 27 31 61l29 -2l-31 -180q-72 -27 -137.5 -37t-136.5 -10q-109 0 -198 31.5t-152.5 90t-98.5 138.5t-35 178zM834 -139q-156 0 -293.5 58t-238.5 159.5t-159.5 236t-58.5 287.5q0 156 58.5 293t159.5 238.5t238.5 161 t293.5 59.5t292 -59.5t237 -161t159.5 -238.5t58.5 -293q0 -154 -58.5 -288t-159.5 -235.5t-237 -159.5t-292 -58zM834 -84q141 0 265 54.5t215 148.5t143 219t52 264q0 143 -52 269t-143 221.5t-215 150.5t-265 55q-143 0 -267.5 -55t-215.5 -150.5t-143 -222.5t-52 -268 q0 -139 52 -264t144 -219t216.5 -148.5t265.5 -54.5z" />
<glyph unicode="&#xaa;" horiz-adv-x="757" d="M578 631q-47 6 -77 30.5t-40 53.5l-62 -37q-27 -16 -62.5 -30.5t-82.5 -14.5q-70 0 -114 38t-44 99q0 78 72 115q53 29 136 55.5t157 48.5v137q2 63 -31 98.5t-100 35.5q-31 0 -51.5 -7.5t-30.5 -13.5l-8 -65l-105 -37q-10 0 -14 8t-4 16q0 18 18 37q55 53 133 91t148 38 q76 0 122 -43t44 -113l-11 -415l121 -72zM459 950q-8 -4 -17.5 -7t-17.5 -5q-41 -12 -73 -24.5t-56 -22.5q-41 -18 -57.5 -40t-16.5 -56q0 -41 24.5 -71t71.5 -30t86 22.5t52 45.5z" />
<glyph unicode="&#xab;" horiz-adv-x="845" d="M88 516l307 326l21 -6l-189 -332v-2l189 -332l-21 -6l-307 325v27zM410 516l307 326l20 -6l-188 -332v-2l188 -332l-20 -6l-307 325v27z" />
<glyph unicode="&#xac;" horiz-adv-x="1087" d="M958 66h-100v421h-731v91h831v-512z" />
<glyph unicode="&#xad;" horiz-adv-x="776" d="M657 420h-538v96h538v-96z" />
<glyph unicode="&#xae;" horiz-adv-x="1662" d="M807 190v-4h-350v4l106 62v723l-100 57v4h258q16 0 46 1t50 1q66 0 110 -10t77 -29q47 -27 68.5 -70.5t21.5 -97.5q0 -90 -53.5 -143t-114.5 -76v-4q12 -23 32.5 -51.5t44 -61t48 -64.5t47.5 -60q37 -43 76.5 -86t66.5 -64q25 -14 47 -20q12 -6 25 -8v-7h-133 q-47 0 -80 16.5t-62 51.5l-32 39q-14 18 -31 39.5t-39.5 53.5t-52 76t-70.5 105l-125 4v-323zM827 608q55 20 93 68.5t38 140.5q0 86 -48 137.5t-152 51.5q-39 0 -70 -7v-393zM834 -139q-156 0 -293.5 58t-238.5 159.5t-159.5 236t-58.5 287.5q0 156 58.5 293t159.5 238.5 t238.5 161t293.5 59.5t292 -59.5t237 -161t159.5 -238.5t58.5 -293q0 -154 -58.5 -288t-159.5 -235.5t-237 -159.5t-292 -58zM834 -84q141 0 265 54.5t215 148.5t143 219t52 264q0 143 -52 269t-143 221.5t-215 150.5t-265 55q-143 0 -267.5 -55t-215.5 -150.5t-143 -222.5 t-52 -268q0 -139 52 -264t144 -219t216.5 -148.5t265.5 -54.5z" />
<glyph unicode="&#xaf;" horiz-adv-x="755" d="M82 1186v90h573v-90h-573z" />
<glyph unicode="&#xb0;" horiz-adv-x="745" d="M84 1004q0 57 22.5 107t60.5 88t91 59.5t115 21.5q61 0 113.5 -21.5t91 -59.5t61.5 -88t23 -107q0 -59 -23 -109.5t-60.5 -88.5t-91 -59.5t-114.5 -21.5q-63 0 -116.5 21.5t-91.5 59.5t-59.5 88.5t-21.5 109.5zM360 1241q-80 0 -118.5 -65.5t-38.5 -153.5q0 -49 11 -96 t33.5 -82t56.5 -56.5t77 -21.5q41 0 71.5 17.5t51 48t31 70.5t10.5 83q0 49 -12.5 95t-36 82t-57.5 57.5t-79 21.5z" />
<glyph unicode="&#xb1;" horiz-adv-x="1105" d="M989 0h-872v90h872v-90zM600 913v-299h389v-90h-389v-311h-98v311h-387v90h387v299h98z" />
<glyph unicode="&#xb2;" horiz-adv-x="757" d="M96 549q74 66 139.5 127t114.5 123q57 72 92 141.5t35 140.5q0 78 -38 120t-107 42q-66 0 -108 -37t-70 -88l-27 19q12 33 32.5 67.5t52.5 61t73 44t92 17.5q100 0 161.5 -59.5t61.5 -155.5q0 -55 -21.5 -106.5t-57.5 -99.5t-84 -96t-101 -97q-25 -23 -56.5 -49.5 t-54.5 -49.5v-4h363l59 107h17l-21 -187h-545z" />
<glyph unicode="&#xb3;" horiz-adv-x="698" d="M563 1167q0 -59 -46 -105t-109 -75v-4q31 -2 66.5 -15.5t67 -38t52 -60t20.5 -85.5q0 -61 -25.5 -111t-68.5 -86t-99 -54.5t-118 -18.5q-49 0 -90 11.5t-69.5 28.5t-45 37.5t-16.5 41.5q0 18 15.5 37.5t60.5 13.5l55 -111q14 -14 36.5 -23t57.5 -9q86 0 135.5 58 t49.5 146q0 90 -52.5 131.5t-120.5 41.5q-33 0 -73 -15l-6 33q96 31 152.5 76t56.5 125q0 53 -32 85.5t-95 32.5t-100.5 -32.5t-57.5 -67.5l-27 23q10 25 30.5 50t50.5 47.5t69 37t86 14.5q80 0 135 -44t55 -116z" />
<glyph unicode="&#xb4;" horiz-adv-x="1280" d="M340 1024l-23 14l203 418q12 14 37 10t47.5 -18t35.5 -35.5t3 -40.5z" />
<glyph unicode="&#xb5;" horiz-adv-x="1107" d="M1036 68l-256 -99l-30 6l-11 123q-70 -47 -155.5 -86t-173.5 -39q-72 0 -116 25t-67 53h-2q0 -121 17.5 -215t58.5 -196l49 -121q-16 -27 -54 -53.5t-77 -26.5q-23 0 -34 25.5t-11 103.5q0 51 1 108.5t3 116.5t4 118.5t2 108.5v859l148 4h24l-4 -127l-2 -496 q0 -90 51.5 -144.5t137.5 -54.5q78 0 131 32t71 67v721l146 2h24l-4 -127v-666l129 -18v-4z" />
<glyph unicode="&#xb6;" horiz-adv-x="1085" d="M428 483q-10 -2 -17.5 -2h-17.5q-328 -4 -327 336q0 215 163 297q45 23 98.5 33t141.5 10h504v-4l-119 -61v-1278l104 -70v-4h-219v1378h-139v-1378h-274v4l159 74v1300h-32q-59 0 -91 -15.5t-55 -41.5q-35 -41 -46 -104.5t-11 -133.5q0 -158 47 -233.5t131 -83.5v-23z " />
<glyph unicode="&#xb7;" horiz-adv-x="479" d="M118 567q0 53 35 87t84 34q51 0 87 -34t36 -87q0 -51 -36 -85t-87 -34q-49 0 -84 34t-35 85z" />
<glyph unicode="&#xb8;" horiz-adv-x="587" d="M352 -8l-82 -76q18 -12 43 -30.5t46.5 -42t37 -51.5t15.5 -58q0 -43 -29 -76t-71 -55.5t-89 -34.5t-84 -17l-24 33q25 4 54.5 11.5t55 20.5t43 33.5t17.5 53.5q0 27 -14.5 49.5t-36 38.5t-45 28.5t-42.5 20.5l-2 13l160 141z" />
<glyph unicode="&#xb9;" horiz-adv-x="608" d="M96 1192l-6 10l291 129h6l-4 -71v-670l156 -53v-5h-420v5l153 53v631z" />
<glyph unicode="&#xba;" horiz-adv-x="843" d="M84 983q0 74 25.5 137.5t70.5 109.5t107.5 72.5t138.5 26.5t138.5 -26.5t106.5 -72.5t67.5 -109.5t23.5 -139.5q0 -74 -25.5 -138.5t-70.5 -110.5t-108.5 -72.5t-139.5 -26.5q-78 0 -140.5 25.5t-105.5 72.5t-65.5 110.5t-22.5 141.5zM395 1282q-43 0 -74.5 -21.5 t-53 -57.5t-32 -83t-10.5 -96q0 -66 14.5 -128t42 -110.5t67.5 -78t93 -29.5q45 0 80 21.5t56.5 58.5t33 85t11.5 101q0 68 -14.5 128.5t-43 107.5t-71 74.5t-99.5 27.5z" />
<glyph unicode="&#xbb;" horiz-adv-x="845" d="M758 489l-307 -325l-21 6l188 332v2l-188 332l21 6l307 -326v-27zM436 489l-307 -325l-20 6l188 332v2l-188 332l20 6l307 -326v-27z" />
<glyph unicode="&#xbc;" horiz-adv-x="1509" d="M279 -41l841 1368h80l-840 -1368h-81zM80 1192l-6 10l291 129h6l-4 -71v-670l155 -53v-5h-420v5l154 53v631zM1192 0v240h-350v53q98 129 195.5 254t201.5 252h64v-473h145l-14 -86h-131v-240h-111zM1192 434v39v48.5v66.5v94q-66 -84 -139.5 -178t-132.5 -178h272v108z " />
<glyph unicode="&#xbd;" horiz-adv-x="1521" d="M274 -41l842 1368h80l-840 -1368h-82zM887 18q74 66 139.5 127.5t114.5 122.5q57 72 92 141.5t35 141.5q0 78 -38 120t-108 42q-66 0 -107.5 -37t-70.5 -88l-26 18q12 33 32.5 68t52 61.5t72.5 44t92 17.5q100 0 162 -59.5t62 -155.5q0 -55 -21.5 -106.5t-57.5 -99.5 t-84 -96.5t-102 -97.5q-25 -23 -56.5 -49.5t-53.5 -48.5v-4h362l60 106h16l-20 -186h-545zM76 1192l-6 10l290 129h7l-5 -71v-670l156 -53v-5h-420v5l154 53v631z" />
<glyph unicode="&#xbe;" horiz-adv-x="1601" d="M553 1167q0 -59 -46 -105t-110 -75v-4q31 -2 67 -15.5t67.5 -38t52 -60t20.5 -85.5q0 -61 -25.5 -111t-68.5 -86t-99.5 -54.5t-117.5 -18.5q-49 0 -90 11.5t-70 28.5t-45 37.5t-16 41.5q0 18 15 37.5t60 13.5l56 -111q14 -14 36.5 -23t57.5 -9q86 0 135 58t49 146 q0 90 -52 131.5t-120 41.5q-33 0 -73 -15l-7 33q96 31 152.5 76t56.5 125q0 53 -31.5 85.5t-95.5 32.5q-63 0 -100 -32.5t-57 -67.5l-27 23q10 25 30.5 50t50.5 47.5t68.5 37t85.5 14.5q80 0 135.5 -44t55.5 -116zM371 -41l841 1368h80l-839 -1368h-82zM1284 0v240h-350v53 q98 129 195.5 254t201.5 252h64v-473h145l-14 -86h-131v-240h-111zM1284 434v39v48.5v66.5v94q-66 -84 -139.5 -178t-132.5 -178h272v108z" />
<glyph unicode="&#xbf;" horiz-adv-x="698" d="M399.019 -431.92q-54.9971 0 -111.493 35.998t-102.494 96.4941q-45.9971 60.4961 -75.9951 136.991t-29.998 156.49q0 136.992 53.4971 211.987q53.4961 74.9961 168.489 86.9951l46.9971 5.99902q50.9971 6 84.4951 13.5q33.498 7.49902 53.9971 20.498 q20.498 12.999 28.998 34.498q8.49902 21.499 8.49902 56.4971q0 22.998 -3 51.4961q-2.99902 28.499 -6.99902 57.4971h33.998q9.99902 -28.998 22.498 -83.9951q12.5 -54.9971 12.5 -124.992q0 -97.9941 -38.998 -142.991q-17.999 -19.999 -43.4971 -28.498 q-25.499 -8.5 -75.4961 -12.5l-64.9951 -6.99902q-54.9971 -6 -99.9941 -13.999q-44.9971 -8 -76.9951 -26.499t-49.4971 -48.9971t-17.499 -84.4941q0 -60.9971 31.998 -98.9941q31.998 -37.998 80.9951 -57.4971q48.9971 -19.498 109.493 -26.498 q60.4961 -6.99902 117.493 -6.99902q9.99902 -10 23.498 -35.998q13.499 -25.999 13.499 -65.9961q0 -40.998 -21.498 -69.9961q-21.499 -28.998 -72.4961 -28.998zM602.006 793.006q0 -48.9971 -33.998 -82.9951q-33.9971 -33.998 -82.9941 -33.998t-83.9951 33.998 t-34.998 82.9951q0 48.9961 34.998 81.9941t83.9951 32.998t82.9941 -32.998q33.998 -32.998 33.998 -81.9941z" />
<glyph unicode="&#xc0;" horiz-adv-x="1239" d="M362 586h383l-190 499h-2zM778 496h-448l-148 -400l189 -92v-4h-410v4l156 94l409 1061l-24 66q35 10 77 38.5t64 57.5h16l80 -219l383 -1016l148 -82v-4h-522v4l186 80zM389 1784q-10 18 3 39.5t35.5 36t47 18.5t37.5 -10l202 -414l-22 -14z" />
<glyph unicode="&#xc1;" horiz-adv-x="1239" d="M362 586h383l-190 499h-2zM778 496h-448l-148 -400l189 -92v-4h-410v4l156 94l409 1061l-24 66q35 10 77 38.5t64 57.5h16l80 -219l383 -1016l148 -82v-4h-522v4l186 80zM543 1440l-23 14l203 414q12 14 36.5 10t47 -18.5t36 -36t3.5 -39.5z" />
<glyph unicode="&#xc2;" horiz-adv-x="1239" d="M362 586h383l-190 499h-2zM778 496h-448l-148 -400l189 -92v-4h-410v4l156 94l409 1061l-24 66q35 10 77 38.5t64 57.5h16l80 -219l383 -1016l148 -82v-4h-522v4l186 80zM608 1702l-219 -281l-26 15l221 422h47l223 -422l-24 -15z" />
<glyph unicode="&#xc3;" horiz-adv-x="1239" d="M362 586h383l-190 499h-2zM778 496h-448l-148 -400l189 -92v-4h-410v4l156 94l409 1061l-24 66q35 10 77 38.5t64 57.5h16l80 -219l383 -1016l148 -82v-4h-522v4l186 80zM572 1548q-59 0 -101.5 -16t-80.5 -76l-25 12l125 197l115 -4h100q59 0 101 16.5t81 75.5l25 -12 l-123 -197l-115 4h-102z" />
<glyph unicode="&#xc4;" horiz-adv-x="1239" d="M362 586h383l-190 499h-2zM778 496h-448l-148 -400l189 -92v-4h-410v4l156 94l409 1061l-24 66q35 10 77 38.5t64 57.5h16l80 -219l383 -1016l148 -82v-4h-522v4l186 80zM348 1608q0 39 28 67.5t69 28.5t68.5 -28.5t27.5 -67.5q0 -37 -28 -64.5t-68 -27.5q-41 0 -69 27.5 t-28 64.5zM701 1608q0 39 27.5 67.5t68.5 28.5t68.5 -28.5t27.5 -67.5q0 -37 -27.5 -64.5t-68.5 -27.5t-68.5 27.5t-27.5 64.5z" />
<glyph unicode="&#xc5;" horiz-adv-x="1239" d="M362 586h383l-190 499h-2zM778 496h-448l-148 -400l189 -92v-4h-410v4l156 94l409 1061l-24 66q35 10 77 38.5t64 57.5h16l80 -219l383 -1016l148 -82v-4h-522v4l186 80zM620 1753q70 0 113 -40t43 -105q0 -66 -45 -106t-113 -40t-111.5 39t-43.5 107q0 63 45.5 104 t111.5 41zM614 1733q-41 0 -67.5 -35t-26.5 -82q0 -55 28.5 -94t76.5 -39q41 0 68.5 34.5t27.5 86.5q0 55 -30 92t-77 37z" />
<glyph unicode="&#xc6;" horiz-adv-x="1800" d="M684 4l215 88l-35 555h-368l-312 -545l205 -98v-4h-440v4l164 96l641 1125l-201 82v4h887l205 6l8 -2l12 -271h-41l-98 218l-522 -2l32 -558l488 5l51 161h41v-376h-41l-51 159l-484 2l35 -600l508 4l111 201h39l-41 -262h-11l-178 4h-819v4zM524 698h338l-31 545h-4z " />
<glyph unicode="&#xc7;" horiz-adv-x="1353" d="M86 651q0 147 52 272.5t148.5 215.5t234.5 141t310 51q123 0 225.5 -17.5t205.5 -45.5l4 -281h-39q-12 45 -29 84q-14 35 -31.5 69t-33.5 52q-49 35 -124 61.5t-196 26.5q-123 0 -219 -43t-162.5 -121t-101.5 -186.5t-35 -239.5q0 -150 41 -272.5t114.5 -209.5t176 -134 t225.5 -47q92 0 159.5 23.5t116.5 64.5q18 16 40 50t40 68q23 39 43 86l37 -2l-49 -268q-104 -37 -198.5 -53t-198.5 -19l-66 -61q18 -12 43 -30.5t46.5 -42t37 -51.5t15.5 -58q0 -43 -29 -76t-71 -55.5t-89 -34.5t-84 -17l-24 33q25 4 54.5 11.5t55 20.5t43 33.5t17.5 53.5 q0 27 -14.5 49.5t-36 38.5t-45 28.5t-42.5 20.5l-2 13l142 127q-160 4 -291 55t-223.5 139t-142.5 209t-50 268z" />
<glyph unicode="&#xc8;" d="M35 4l217 90v1123l-207 90v4h776l205 6l8 -2l13 -271h-41l-99 218h-475v-560l473 5l51 161h41v-376h-41l-51 159l-473 2v-600l533 4l110 201h39l-41 -262h-10l-178 4h-850v4zM350 1784q-10 18 3 39.5t35.5 36t47 18.5t37.5 -10l202 -414l-22 -14z" />
<glyph unicode="&#xc9;" d="M35 4l217 90v1123l-207 90v4h776l205 6l8 -2l13 -271h-41l-99 218h-475v-560l473 5l51 161h41v-376h-41l-51 159l-473 2v-600l533 4l110 201h39l-41 -262h-10l-178 4h-850v4zM549 1440l-23 14l203 414q12 14 36.5 10t47 -18.5t36 -36t3.5 -39.5z" />
<glyph unicode="&#xca;" d="M35 4l217 90v1123l-207 90v4h776l205 6l8 -2l13 -271h-41l-99 218h-475v-560l473 5l51 161h41v-376h-41l-51 159l-473 2v-600l533 4l110 201h39l-41 -262h-10l-178 4h-850v4zM620 1702l-219 -281l-26 15l221 422h47l223 -422l-24 -15z" />
<glyph unicode="&#xcb;" d="M35 4l217 90v1123l-207 90v4h776l205 6l8 -2l13 -271h-41l-99 218h-475v-560l473 5l51 161h41v-376h-41l-51 159l-473 2v-600l533 4l110 201h39l-41 -262h-10l-178 4h-850v4zM340 1608q0 39 28 67.5t69 28.5t68.5 -28.5t27.5 -67.5q0 -37 -28 -64.5t-68 -27.5 q-41 0 -69 27.5t-28 64.5zM693 1608q0 39 27.5 67.5t68.5 28.5t68.5 -28.5t27.5 -67.5q0 -37 -27.5 -64.5t-68.5 -27.5t-68.5 27.5t-27.5 64.5z" />
<glyph unicode="&#xcc;" horiz-adv-x="651" d="M576 1307l-162 -90v-1123l162 -90v-4h-504v4l162 90v1123l-162 90v4h504v-4zM72 1784q-10 18 3 39.5t35.5 36t47 18.5t37.5 -10l202 -414l-22 -14z" />
<glyph unicode="&#xcd;" horiz-adv-x="651" d="M578 1307l-162 -90v-1123l162 -90v-4h-504v4l162 90v1123l-162 90v4h504v-4zM267 1440l-23 14l203 414q12 14 36.5 10t47 -18.5t36 -36t3.5 -39.5z" />
<glyph unicode="&#xce;" horiz-adv-x="651" d="M578 1307l-162 -90v-1123l162 -90v-4h-504v4l162 90v1123l-162 90v4h504v-4zM333 1702l-219 -281l-26 15l221 422h47l223 -422l-24 -15z" />
<glyph unicode="&#xcf;" horiz-adv-x="651" d="M578 1307l-162 -90v-1123l162 -90v-4h-504v4l162 90v1123l-162 90v4h504v-4zM57 1608q0 39 28 67.5t69 28.5t68.5 -28.5t27.5 -67.5q0 -37 -28 -64.5t-68 -27.5q-41 0 -69 27.5t-28 64.5zM410 1608q0 39 27.5 67.5t68.5 28.5t68.5 -28.5t27.5 -67.5q0 -37 -27.5 -64.5 t-68.5 -27.5t-68.5 27.5t-27.5 64.5z" />
<glyph unicode="&#xd0;" horiz-adv-x="1482" d="M66 698h170v519l-164 90v4h247q39 0 77 1t79 3q37 2 74 3t74 1q197 0 342 -48t241.5 -132t143.5 -201t47 -254q0 -139 -49.5 -265t-145.5 -221.5t-237.5 -151.5t-325.5 -56q-47 0 -100.5 2t-100.5 4q-35 2 -65.5 3t-65.5 1h-235v4l164 90v549h-170v55zM416 698h389v-55 h-389v-219q0 -106 5 -180t27.5 -120t68.5 -66.5t130 -20.5q123 0 224.5 45t172 126t109.5 192.5t39 244.5q0 156 -49 272.5t-135 194.5t-203 117t-250 39q-72 0 -139 -6v-564z" />
<glyph unicode="&#xd1;" horiz-adv-x="1503" d="M1278 1200l-6 -1233h-43l-770 922q-47 57 -83 102t-61 78h-4v-205l-2 -751l193 -109v-4h-430v4l174 109l8 1015l-86 103l-127 76v4h303l694 -840q20 -25 48 -57.5t52.5 -63.5t44 -56.5t27.5 -37.5h4q-2 55 -2 110.5v114.5l2 719l-174 107v4h402v-4zM731 1548 q-59 0 -101.5 -16t-80.5 -76l-25 12l125 197l115 -4h100q59 0 101 16.5t81 75.5l25 -12l-123 -197l-115 4h-102z" />
<glyph unicode="&#xd2;" horiz-adv-x="1554" d="M764 -27q-160 0 -286 53.5t-213 143.5t-133 212t-46 259q0 147 54.5 273t149.5 218.5t226 144.5t285 52q166 0 291 -54t208.5 -145.5t125.5 -212t42 -253.5q0 -152 -55 -278t-150.5 -218t-223.5 -143.5t-275 -51.5zM819 29q102 0 184 43t139.5 120.5t88.5 186t31 239.5 q0 139 -36 259t-103.5 208.5t-166 138.5t-223.5 50q-94 0 -175 -41t-140.5 -116t-93 -179t-33.5 -231q0 -147 34.5 -271.5t101.5 -214.5t165 -141t227 -51zM486 1784q-10 18 3 39.5t35.5 36t47 18.5t37.5 -10l202 -414l-22 -14z" />
<glyph unicode="&#xd3;" horiz-adv-x="1554" d="M764 -27q-160 0 -286 53.5t-213 143.5t-133 212t-46 259q0 147 54.5 273t149.5 218.5t226 144.5t285 52q166 0 291 -54t208.5 -145.5t125.5 -212t42 -253.5q0 -152 -55 -278t-150.5 -218t-223.5 -143.5t-275 -51.5zM819 29q102 0 184 43t139.5 120.5t88.5 186t31 239.5 q0 139 -36 259t-103.5 208.5t-166 138.5t-223.5 50q-94 0 -175 -41t-140.5 -116t-93 -179t-33.5 -231q0 -147 34.5 -271.5t101.5 -214.5t165 -141t227 -51zM711 1440l-23 14l203 414q12 14 36.5 10t47 -18.5t36 -36t3.5 -39.5z" />
<glyph unicode="&#xd4;" horiz-adv-x="1554" d="M764 -27q-160 0 -286 53.5t-213 143.5t-133 212t-46 259q0 147 54.5 273t149.5 218.5t226 144.5t285 52q166 0 291 -54t208.5 -145.5t125.5 -212t42 -253.5q0 -152 -55 -278t-150.5 -218t-223.5 -143.5t-275 -51.5zM819 29q102 0 184 43t139.5 120.5t88.5 186t31 239.5 q0 139 -36 259t-103.5 208.5t-166 138.5t-223.5 50q-94 0 -175 -41t-140.5 -116t-93 -179t-33.5 -231q0 -147 34.5 -271.5t101.5 -214.5t165 -141t227 -51zM788 1702l-219 -281l-26 15l221 422h47l223 -422l-24 -15z" />
<glyph unicode="&#xd5;" horiz-adv-x="1554" d="M764 -27q-160 0 -286 53.5t-213 143.5t-133 212t-46 259q0 147 54.5 273t149.5 218.5t226 144.5t285 52q166 0 291 -54t208.5 -145.5t125.5 -212t42 -253.5q0 -152 -55 -278t-150.5 -218t-223.5 -143.5t-275 -51.5zM819 29q102 0 184 43t139.5 120.5t88.5 186t31 239.5 q0 139 -36 259t-103.5 208.5t-166 138.5t-223.5 50q-94 0 -175 -41t-140.5 -116t-93 -179t-33.5 -231q0 -147 34.5 -271.5t101.5 -214.5t165 -141t227 -51zM739 1548q-59 0 -101.5 -16t-80.5 -76l-25 12l125 197l115 -4h100q59 0 101 16.5t81 75.5l25 -12l-123 -197l-115 4 h-102z" />
<glyph unicode="&#xd6;" horiz-adv-x="1554" d="M764 -27q-160 0 -286 53.5t-213 143.5t-133 212t-46 259q0 147 54.5 273t149.5 218.5t226 144.5t285 52q166 0 291 -54t208.5 -145.5t125.5 -212t42 -253.5q0 -152 -55 -278t-150.5 -218t-223.5 -143.5t-275 -51.5zM819 29q102 0 184 43t139.5 120.5t88.5 186t31 239.5 q0 139 -36 259t-103.5 208.5t-166 138.5t-223.5 50q-94 0 -175 -41t-140.5 -116t-93 -179t-33.5 -231q0 -147 34.5 -271.5t101.5 -214.5t165 -141t227 -51zM514 1608q0 39 28 67.5t69 28.5t68.5 -28.5t27.5 -67.5q0 -37 -28 -64.5t-68 -27.5q-41 0 -69 27.5t-28 64.5z M867 1608q0 39 27.5 67.5t68.5 28.5t68.5 -28.5t27.5 -67.5q0 -37 -27.5 -64.5t-68.5 -27.5t-68.5 27.5t-27.5 64.5z" />
<glyph unicode="&#xd7;" horiz-adv-x="948" d="M158 823l315 -317l318 317l63 -63l-317 -318l317 -315l-63 -64l-318 316l-315 -316l-64 64l316 315l-316 318z" />
<glyph unicode="&#xd8;" horiz-adv-x="1554" d="M375 -174l94 205q-92 39 -164 101.5t-120 141t-73.5 172t-25.5 195.5q0 147 54.5 273t149.5 218.5t226 144.5t285 52q68 0 129 -10t114 -27l64 135h76l-74 -161q88 -41 155.5 -103.5t112.5 -140.5t67.5 -169t22.5 -189q0 -152 -55 -278t-150.5 -218t-223.5 -143.5 t-275 -51.5q-66 0 -124 8.5t-112 24.5l-82 -180h-71zM291 707q0 -190 56 -340t167 -238l487 1069q-115 76 -268 76q-94 0 -175 -41t-140.5 -116t-93 -179t-33.5 -231zM819 29q102 0 184 43t139.5 120.5t88.5 186t31 239.5q0 170 -52.5 309.5t-152.5 227.5l-488 -1063 q109 -63 250 -63z" />
<glyph unicode="&#xd9;" horiz-adv-x="1437" d="M381 571q0 -133 14.5 -217t44.5 -145q45 -90 125 -130t203 -40q98 0 170 28.5t121 84.5q53 61 79.5 153t26.5 236v659l-174 107v4h402v-4l-160 -107v-637q0 -141 -25.5 -251.5t-85 -187.5t-156 -117t-237.5 -40t-240.5 32t-164 102.5t-94 185t-29.5 280.5v650l-152 90v4 h494v-4l-162 -90v-646zM481 1784q-10 18 3 39.5t35.5 36t47 18.5t37.5 -10l202 -414l-22 -14z" />
<glyph unicode="&#xda;" horiz-adv-x="1437" d="M381 571q0 -133 14.5 -217t44.5 -145q45 -90 125 -130t203 -40q98 0 170 28.5t121 84.5q53 61 79.5 153t26.5 236v659l-174 107v4h402v-4l-160 -107v-637q0 -141 -25.5 -251.5t-85 -187.5t-156 -117t-237.5 -40t-240.5 32t-164 102.5t-94 185t-29.5 280.5v650l-152 90v4 h494v-4l-162 -90v-646zM656 1440l-23 14l203 414q12 14 36.5 10t47 -18.5t36 -36t3.5 -39.5z" />
<glyph unicode="&#xdb;" horiz-adv-x="1437" d="M381 571q0 -133 14.5 -217t44.5 -145q45 -90 125 -130t203 -40q98 0 170 28.5t121 84.5q53 61 79.5 153t26.5 236v659l-174 107v4h402v-4l-160 -107v-637q0 -141 -25.5 -251.5t-85 -187.5t-156 -117t-237.5 -40t-240.5 32t-164 102.5t-94 185t-29.5 280.5v650l-152 90v4 h494v-4l-162 -90v-646zM757 1702l-219 -281l-26 15l221 422h47l223 -422l-24 -15z" />
<glyph unicode="&#xdc;" horiz-adv-x="1437" d="M381 571q0 -133 14.5 -217t44.5 -145q45 -90 125 -130t203 -40q98 0 170 28.5t121 84.5q53 61 79.5 153t26.5 236v659l-174 107v4h402v-4l-160 -107v-637q0 -141 -25.5 -251.5t-85 -187.5t-156 -117t-237.5 -40t-240.5 32t-164 102.5t-94 185t-29.5 280.5v650l-152 90v4 h494v-4l-162 -90v-646zM483 1608q0 39 28 67.5t69 28.5t68.5 -28.5t27.5 -67.5q0 -37 -28 -64.5t-68 -27.5q-41 0 -69 27.5t-28 64.5zM836 1608q0 39 27.5 67.5t68.5 28.5t68.5 -28.5t27.5 -67.5q0 -37 -27.5 -64.5t-68.5 -27.5t-68.5 27.5t-27.5 64.5z" />
<glyph unicode="&#xdd;" d="M131 1212l-156 95v4h519v-4l-168 -95l327 -579h6l326 579l-160 95v4h385v-4l-159 -95l-371 -653v-461l199 -94v-4h-576v4l199 94v459zM605 1440l-23 14l203 414q12 14 36.5 10t47 -18.5t36 -36t3.5 -39.5z" />
<glyph unicode="&#xde;" horiz-adv-x="1103" d="M582 1307l-166 -90v-168q35 0 63.5 1t44.5 1q100 0 186.5 -11.5t153.5 -46.5q84 -43 136.5 -121.5t52.5 -191.5q0 -102 -42 -177t-111 -125t-159 -73.5t-188 -23.5v24q166 33 237.5 122t71.5 245t-90 246t-260 90q-27 0 -56.5 -2t-39.5 -7v-905l223 -90v-4h-565v4l162 90 v1123l-162 90v4h508v-4z" />
<glyph unicode="&#xdf;" horiz-adv-x="1163" d="M41 786v5l137 83q0 106 29 211t89 188t152.5 134t219.5 51q68 0 128 -16.5t105 -48t71.5 -77.5t26.5 -108q0 -45 -14 -80.5t-37.5 -64.5t-53.5 -53.5t-60 -46.5q-25 -20 -48.5 -40t-42 -41.5t-30 -49t-11.5 -64.5q0 -72 51.5 -117t123.5 -90l59 -37q37 -25 70.5 -50 t58.5 -56t40 -69t15 -85q0 -63 -26.5 -115.5t-70.5 -90.5t-103.5 -58t-124.5 -20q-80 0 -133.5 14t-81.5 31l-21 202l41 2q6 -31 18 -61q10 -27 27 -57.5t43 -59.5q20 -16 49 -25.5t58 -9.5q86 0 132 50.5t46 126.5t-50.5 128t-119.5 93l-78 47q-72 43 -122 94t-50 137 q0 37 13.5 68t35 56.5t48 49t52.5 45.5q29 23 56.5 47.5t48 55t33 68.5t12.5 89t-19.5 95.5t-53.5 75t-80 48t-97 17.5q-88 0 -140 -46t-81 -120q-20 -55 -28.5 -123.5t-8.5 -161.5l2 -876l129 -76v-4h-407v4l110 76v706h-137z" />
<glyph unicode="&#xe0;" horiz-adv-x="884" d="M711 -33q-63 8 -101.5 37t-60.5 68h-2l-78 -37q-37 -18 -84 -36.5t-109 -18.5q-100 0 -158.5 52t-58.5 130q0 61 29 101t70 61q35 16 81 33.5t98 35t106.5 32.5t103.5 30l2 190q4 182 -180 182q-41 0 -65.5 -9t-41.5 -19l-10 -97l-143 -51q-12 0 -19.5 10.5t-7.5 22.5 q0 20 27 47q37 35 82 66.5t94 55.5t97 37t91 13q131 0 187.5 -54t54.5 -147l-13 -561l170 -94zM545 418l-43 -15q-53 -16 -98.5 -30.5t-77.5 -28.5q-57 -25 -77 -58.5t-20 -80.5q0 -72 40 -113t108 -41q57 0 104 23.5t60 50.5zM205 1372q-10 18 3 40t35.5 36t47 18t36.5 -10 l203 -418l-22 -14z" />
<glyph unicode="&#xe1;" horiz-adv-x="884" d="M711 -33q-63 8 -101.5 37t-60.5 68h-2l-78 -37q-37 -18 -84 -36.5t-109 -18.5q-100 0 -158.5 52t-58.5 130q0 61 29 101t70 61q35 16 81 33.5t98 35t106.5 32.5t103.5 30l2 190q4 182 -180 182q-41 0 -65.5 -9t-41.5 -19l-10 -97l-143 -51q-12 0 -19.5 10.5t-7.5 22.5 q0 20 27 47q37 35 82 66.5t94 55.5t97 37t91 13q131 0 187.5 -54t54.5 -147l-13 -561l170 -94zM545 418l-43 -15q-53 -16 -98.5 -30.5t-77.5 -28.5q-57 -25 -77 -58.5t-20 -80.5q0 -72 40 -113t108 -41q57 0 104 23.5t60 50.5zM367 1024l-23 14l203 418q12 14 37 10 t47.5 -18t35.5 -35.5t3 -40.5z" />
<glyph unicode="&#xe2;" horiz-adv-x="884" d="M711 -33q-63 8 -101.5 37t-60.5 68h-2l-78 -37q-37 -18 -84 -36.5t-109 -18.5q-100 0 -158.5 52t-58.5 130q0 61 29 101t70 61q35 16 81 33.5t98 35t106.5 32.5t103.5 30l2 190q4 182 -180 182q-41 0 -65.5 -9t-41.5 -19l-10 -97l-143 -51q-12 0 -19.5 10.5t-7.5 22.5 q0 20 27 47q37 35 82 66.5t94 55.5t97 37t91 13q131 0 187.5 -54t54.5 -147l-13 -561l170 -94zM545 418l-43 -15q-53 -16 -98.5 -30.5t-77.5 -28.5q-57 -25 -77 -58.5t-20 -80.5q0 -72 40 -113t108 -41q57 0 104 23.5t60 50.5zM213 1018l-25 14l234 441h43l233 -441l-24 -14 l-232 297z" />
<glyph unicode="&#xe3;" horiz-adv-x="884" d="M711 -33q-63 8 -101.5 37t-60.5 68h-2l-78 -37q-37 -18 -84 -36.5t-109 -18.5q-100 0 -158.5 52t-58.5 130q0 61 29 101t70 61q35 16 81 33.5t98 35t106.5 32.5t103.5 30l2 190q4 182 -180 182q-41 0 -65.5 -9t-41.5 -19l-10 -97l-143 -51q-12 0 -19.5 10.5t-7.5 22.5 q0 20 27 47q37 35 82 66.5t94 55.5t97 37t91 13q131 0 187.5 -54t54.5 -147l-13 -561l170 -94zM545 418l-43 -15q-53 -16 -98.5 -30.5t-77.5 -28.5q-57 -25 -77 -58.5t-20 -80.5q0 -72 40 -113t108 -41q57 0 104 23.5t60 50.5zM387 1184q-59 0 -101.5 -16.5t-80.5 -75.5 l-25 12l125 196l115 -4h100q59 0 101 16.5t81 76.5l25 -13l-123 -196l-115 4h-102z" />
<glyph unicode="&#xe4;" horiz-adv-x="884" d="M711 -33q-63 8 -101.5 37t-60.5 68h-2l-78 -37q-37 -18 -84 -36.5t-109 -18.5q-100 0 -158.5 52t-58.5 130q0 61 29 101t70 61q35 16 81 33.5t98 35t106.5 32.5t103.5 30l2 190q4 182 -180 182q-41 0 -65.5 -9t-41.5 -19l-10 -97l-143 -51q-12 0 -19.5 10.5t-7.5 22.5 q0 20 27 47q37 35 82 66.5t94 55.5t97 37t91 13q131 0 187.5 -54t54.5 -147l-13 -561l170 -94zM545 418l-43 -15q-53 -16 -98.5 -30.5t-77.5 -28.5q-57 -25 -77 -58.5t-20 -80.5q0 -72 40 -113t108 -41q57 0 104 23.5t60 50.5zM143 1227q0 41 27.5 68.5t66.5 27.5 t67.5 -27.5t28.5 -68.5t-28.5 -67.5t-67.5 -26.5t-66.5 26.5t-27.5 67.5zM505 1227q0 41 28 68.5t67 27.5t67.5 -27.5t28.5 -68.5t-28.5 -67.5t-67.5 -26.5t-67 26.5t-28 67.5z" />
<glyph unicode="&#xe5;" horiz-adv-x="884" d="M711 -33q-63 8 -101.5 37t-60.5 68h-2l-78 -37q-37 -18 -84 -36.5t-109 -18.5q-100 0 -158.5 52t-58.5 130q0 61 29 101t70 61q35 16 81 33.5t98 35t106.5 32.5t103.5 30l2 190q4 182 -180 182q-41 0 -65.5 -9t-41.5 -19l-10 -97l-143 -51q-12 0 -19.5 10.5t-7.5 22.5 q0 20 27 47q37 35 82 66.5t94 55.5t97 37t91 13q131 0 187.5 -54t54.5 -147l-13 -561l170 -94zM545 418l-43 -15q-53 -16 -98.5 -30.5t-77.5 -28.5q-57 -25 -77 -58.5t-20 -80.5q0 -72 40 -113t108 -41q57 0 104 23.5t60 50.5zM446 1409q70 0 113 -40t43 -105 q0 -66 -45 -106t-113 -40t-111.5 39t-43.5 107q0 63 45.5 104t111.5 41zM440 1389q-41 0 -67.5 -35t-26.5 -82q0 -55 28.5 -94t75.5 -39q41 0 69 34.5t28 86.5q0 55 -30 92t-77 37z" />
<glyph unicode="&#xe6;" horiz-adv-x="1357" d="M711 606q-4 -27 -6.5 -53.5t-2.5 -52.5q0 -82 20.5 -158t61.5 -134t102.5 -93t145.5 -35q92 0 147.5 35t96.5 80l20 -33q-68 -74 -157.5 -128t-216.5 -54q-90 0 -169 36.5t-135 108.5l-145 -86q-35 -23 -85 -41t-114 -18q-100 0 -157.5 50t-57.5 128q0 59 30 98t71 59 q35 16 81 35t98 36t106.5 33.5t103.5 31.5l2 188q2 90 -44 139t-138 49q-41 0 -65.5 -9t-41.5 -19l-10 -97l-143 -51q-12 0 -19.5 10.5t-7.5 22.5q0 20 27 47q37 35 82 66.5t95 55.5t101 37t98 13q72 0 124.5 -28.5t76.5 -79.5q57 53 129 82.5t154 29.5q152 0 230.5 -75.5 t82.5 -208.5l-20 -33zM547 416q-25 -10 -45 -17q-111 -35 -170 -61q-57 -25 -80 -57.5t-23 -79.5q0 -72 38 -110t104 -38q61 0 110 31t62 59zM1110 641v8q0 43 -10 82t-31.5 68.5t-54.5 48t-76 18.5q-92 0 -146.5 -63.5t-74.5 -161.5h393z" />
<glyph unicode="&#xe7;" horiz-adv-x="878" d="M829 786q0 -29 -28.5 -54t-48.5 -34l-232 162q-119 0 -193.5 -93t-74.5 -284q0 -92 24.5 -166.5t68.5 -127t103.5 -81t129.5 -28.5q80 0 138 37t91 80l22 -35q-57 -66 -122.5 -112t-153.5 -62l-76 -72q18 -12 43 -30.5t46.5 -42t36.5 -51.5t15 -58q0 -43 -28.5 -76 t-70.5 -55.5t-89 -34.5t-84 -17l-24 33q25 4 54.5 11.5t55 20.5t43 33.5t17.5 53.5q0 27 -14.5 49.5t-36 38.5t-45 28.5t-42.5 20.5l-2 13l144 129q-6 0 -13.5 -1t-13.5 -1q-80 0 -151.5 28.5t-125 83.5t-84 134t-30.5 180q0 117 39 210t106.5 157.5t156.5 99t189 34.5 q66 0 115 -14t81 -33.5t48 -40.5t16 -33z" />
<glyph unicode="&#xe8;" horiz-adv-x="903" d="M256 606q-4 -27 -6 -53.5t-2 -52.5q0 -82 20.5 -158t61.5 -134t102.5 -93t145.5 -35q92 0 147 35t96 80l21 -33q-68 -74 -158 -128t-217 -54q-80 0 -150.5 29.5t-124 85t-84 135t-30.5 182.5q0 113 33.5 204t93 155.5t139.5 100t170 35.5q152 0 230.5 -75.5t82.5 -208.5 l-20 -33zM655 641v8q0 43 -10 82t-31.5 68.5t-54.5 48t-76 18.5q-92 0 -146 -63.5t-75 -161.5h393zM242 1372q-10 18 3 40t35.5 36t47 18t36.5 -10l203 -418l-22 -14z" />
<glyph unicode="&#xe9;" horiz-adv-x="903" d="M256 606q-4 -27 -6 -53.5t-2 -52.5q0 -82 20.5 -158t61.5 -134t102.5 -93t145.5 -35q92 0 147 35t96 80l21 -33q-68 -74 -158 -128t-217 -54q-80 0 -150.5 29.5t-124 85t-84 135t-30.5 182.5q0 113 33.5 204t93 155.5t139.5 100t170 35.5q152 0 230.5 -75.5t82.5 -208.5 l-20 -33zM655 641v8q0 43 -10 82t-31.5 68.5t-54.5 48t-76 18.5q-92 0 -146 -63.5t-75 -161.5h393zM432 1024l-23 14l203 418q12 14 37 10t47.5 -18t35.5 -35.5t3 -40.5z" />
<glyph unicode="&#xea;" horiz-adv-x="903" d="M256 606q-4 -27 -6 -53.5t-2 -52.5q0 -82 20.5 -158t61.5 -134t102.5 -93t145.5 -35q92 0 147 35t96 80l21 -33q-68 -74 -158 -128t-217 -54q-80 0 -150.5 29.5t-124 85t-84 135t-30.5 182.5q0 113 33.5 204t93 155.5t139.5 100t170 35.5q152 0 230.5 -75.5t82.5 -208.5 l-20 -33zM655 641v8q0 43 -10 82t-31.5 68.5t-54.5 48t-76 18.5q-92 0 -146 -63.5t-75 -161.5h393zM258 1018l-25 14l234 441h43l233 -441l-24 -14l-232 297z" />
<glyph unicode="&#xeb;" horiz-adv-x="903" d="M256 606q-4 -27 -6 -53.5t-2 -52.5q0 -82 20.5 -158t61.5 -134t102.5 -93t145.5 -35q92 0 147 35t96 80l21 -33q-68 -74 -158 -128t-217 -54q-80 0 -150.5 29.5t-124 85t-84 135t-30.5 182.5q0 113 33.5 204t93 155.5t139.5 100t170 35.5q152 0 230.5 -75.5t82.5 -208.5 l-20 -33zM655 641v8q0 43 -10 82t-31.5 68.5t-54.5 48t-76 18.5q-92 0 -146 -63.5t-75 -161.5h393zM227 1227q0 41 27.5 68.5t66.5 27.5t67.5 -27.5t28.5 -68.5t-28.5 -67.5t-67.5 -26.5t-66.5 26.5t-27.5 67.5zM589 1227q0 41 28 68.5t67 27.5t67.5 -27.5t28.5 -68.5 t-28.5 -67.5t-67.5 -26.5t-67 26.5t-28 67.5z" />
<glyph unicode="&#xec;" horiz-adv-x="507" d="M444 4v-4h-372v4l102 72v680l-125 45v2l273 110h22l-2 -188v-649zM45 1372q-10 18 3 40t35.5 36t47 18t36.5 -10l203 -418l-22 -14z" />
<glyph unicode="&#xed;" horiz-adv-x="507" d="M446 4v-4h-372v4l102 72v680l-125 45v2l273 110h22l-2 -188v-649zM154 1024l-23 14l203 418q12 14 37 10t47.5 -18t35.5 -35.5t3 -40.5z" />
<glyph unicode="&#xee;" horiz-adv-x="507" d="M446 4v-4h-372v4l102 72v680l-125 45v2l273 110h22l-2 -188v-649zM39 1018l-25 14l234 441h43l233 -441l-24 -14l-232 297z" />
<glyph unicode="&#xef;" horiz-adv-x="507" d="M446 4v-4h-372v4l102 72v680l-125 45v2l273 110h22l-2 -188v-649zM-8 1227q0 41 27.5 68.5t66.5 27.5t67.5 -27.5t28.5 -68.5t-28.5 -67.5t-67.5 -26.5t-66.5 26.5t-27.5 67.5zM354 1227q0 41 28 68.5t67 27.5t67.5 -27.5t28.5 -68.5t-28.5 -67.5t-67.5 -26.5t-67 26.5 t-28 67.5z" />
<glyph unicode="&#xf0;" horiz-adv-x="1089" d="M377 1343q-57 45 -118.5 78t-121.5 54l31 49q156 -43 291 -129l233 149l51 -43l-225 -145q109 -76 197 -173.5t150.5 -208t96 -229t33.5 -235.5t-29.5 -214t-89 -168t-146.5 -109.5t-200 -38.5q-106 0 -190 34.5t-142.5 96t-90 147.5t-31.5 188q0 100 35.5 185.5t95 147 t139.5 95t170 33.5q74 0 128 -15t95 -38l4 2q-39 115 -121.5 231.5t-191.5 210.5l-227 -145l-51 45zM500 862q-59 0 -102.5 -29.5t-72 -80t-43 -115t-14.5 -133.5q0 -92 19.5 -179t56.5 -154t92.5 -107.5t126.5 -40.5q61 0 107.5 30.5t77 82.5t46 119t15.5 140 q0 92 -19.5 176t-58.5 148.5t-97 103.5t-134 39z" />
<glyph unicode="&#xf1;" horiz-adv-x="1071" d="M45 799v4l268 110h25v-137h4q23 14 59.5 37t81.5 44.5t93.5 35.5t95.5 14q135 0 190.5 -69.5t55.5 -198.5v-563l106 -72v-4h-377v4l103 72v542q0 90 -57.5 142.5t-145.5 52.5q-82 0 -135.5 -32.5t-73.5 -57.5v-647l102 -72v-4h-372v4l102 72v680zM516 1184 q-59 0 -101.5 -16.5t-80.5 -75.5l-25 12l125 196l115 -4h100q59 0 101 16.5t81 76.5l25 -13l-123 -196l-115 4h-102z" />
<glyph unicode="&#xf2;" horiz-adv-x="1073" d="M76 446q0 98 34.5 183.5t96 147t146.5 96t188 34.5q104 0 188 -34.5t143.5 -96t92 -146.5t32.5 -186q0 -98 -33.5 -183t-95 -147.5t-147.5 -98t-191 -35.5q-106 0 -190 34.5t-142.5 96t-90 147.5t-31.5 188zM500 862q-59 0 -102.5 -29.5t-72 -80t-43 -115t-14.5 -133.5 q0 -92 19.5 -179t56.5 -154t92.5 -107.5t126.5 -40.5q61 0 107.5 30.5t77 82.5t46 119t15.5 140q0 92 -19.5 176t-58.5 148.5t-97 103.5t-134 39zM295 1372q-10 18 3 40t35.5 36t47 18t36.5 -10l203 -418l-22 -14z" />
<glyph unicode="&#xf3;" horiz-adv-x="1073" d="M76 446q0 98 34.5 183.5t96 147t146.5 96t188 34.5q104 0 188 -34.5t143.5 -96t92 -146.5t32.5 -186q0 -98 -33.5 -183t-95 -147.5t-147.5 -98t-191 -35.5q-106 0 -190 34.5t-142.5 96t-90 147.5t-31.5 188zM500 862q-59 0 -102.5 -29.5t-72 -80t-43 -115t-14.5 -133.5 q0 -92 19.5 -179t56.5 -154t92.5 -107.5t126.5 -40.5q61 0 107.5 30.5t77 82.5t46 119t15.5 140q0 92 -19.5 176t-58.5 148.5t-97 103.5t-134 39zM469 1024l-23 14l203 418q12 14 37 10t47.5 -18t35.5 -35.5t3 -40.5z" />
<glyph unicode="&#xf4;" horiz-adv-x="1073" d="M76 446q0 98 34.5 183.5t96 147t146.5 96t188 34.5q104 0 188 -34.5t143.5 -96t92 -146.5t32.5 -186q0 -98 -33.5 -183t-95 -147.5t-147.5 -98t-191 -35.5q-106 0 -190 34.5t-142.5 96t-90 147.5t-31.5 188zM500 862q-59 0 -102.5 -29.5t-72 -80t-43 -115t-14.5 -133.5 q0 -92 19.5 -179t56.5 -154t92.5 -107.5t126.5 -40.5q61 0 107.5 30.5t77 82.5t46 119t15.5 140q0 92 -19.5 176t-58.5 148.5t-97 103.5t-134 39zM303 1018l-25 14l234 441h43l233 -441l-24 -14l-232 297z" />
<glyph unicode="&#xf5;" horiz-adv-x="1073" d="M76 446q0 98 34.5 183.5t96 147t146.5 96t188 34.5q104 0 188 -34.5t143.5 -96t92 -146.5t32.5 -186q0 -98 -33.5 -183t-95 -147.5t-147.5 -98t-191 -35.5q-106 0 -190 34.5t-142.5 96t-90 147.5t-31.5 188zM500 862q-59 0 -102.5 -29.5t-72 -80t-43 -115t-14.5 -133.5 q0 -92 19.5 -179t56.5 -154t92.5 -107.5t126.5 -40.5q61 0 107.5 30.5t77 82.5t46 119t15.5 140q0 92 -19.5 176t-58.5 148.5t-97 103.5t-134 39zM494 1184q-59 0 -101.5 -16.5t-80.5 -75.5l-25 12l125 196l115 -4h100q59 0 101 16.5t81 76.5l25 -13l-123 -196l-115 4h-102z " />
<glyph unicode="&#xf6;" horiz-adv-x="1073" d="M76 446q0 98 34.5 183.5t96 147t146.5 96t188 34.5q104 0 188 -34.5t143.5 -96t92 -146.5t32.5 -186q0 -98 -33.5 -183t-95 -147.5t-147.5 -98t-191 -35.5q-106 0 -190 34.5t-142.5 96t-90 147.5t-31.5 188zM500 862q-59 0 -102.5 -29.5t-72 -80t-43 -115t-14.5 -133.5 q0 -92 19.5 -179t56.5 -154t92.5 -107.5t126.5 -40.5q61 0 107.5 30.5t77 82.5t46 119t15.5 140q0 92 -19.5 176t-58.5 148.5t-97 103.5t-134 39zM256 1227q0 41 27.5 68.5t66.5 27.5t67.5 -27.5t28.5 -68.5t-28.5 -67.5t-67.5 -26.5t-66.5 26.5t-27.5 67.5zM618 1227 q0 41 28 68.5t67 27.5t67.5 -27.5t28.5 -68.5t-28.5 -67.5t-67.5 -26.5t-67 26.5t-28 67.5z" />
<glyph unicode="&#xf7;" horiz-adv-x="1077" d="M965 399h-854v90h854v-90zM414 98q0 51 33.5 84t80.5 33q49 0 84 -32.5t35 -84.5q0 -49 -34.5 -81.5t-84.5 -32.5q-47 0 -80.5 32.5t-33.5 81.5zM414 778q0 51 33.5 84t80.5 33q49 0 84 -33t35 -84q0 -49 -34.5 -81.5t-84.5 -32.5q-47 0 -80.5 32.5t-33.5 81.5z" />
<glyph unicode="&#xf8;" horiz-adv-x="1073" d="M76 446q0 98 34.5 183.5t96 147t146.5 96t188 34.5q84 0 155 -24l95 204h67l-104 -227q115 -53 179 -163.5t64 -252.5q0 -98 -33.5 -183t-95 -147.5t-147.5 -98t-191 -35.5q-47 0 -89 7t-81 19l-84 -180h-63l92 203q-111 57 -170 165.5t-59 251.5zM809 395 q0 106 -25.5 201.5t-76.5 161.5l-308 -666q35 -33 75 -51t89 -18q61 0 107.5 30.5t77 82.5t46 118.5t15.5 140.5zM500 862q-59 0 -102.5 -29.5t-72 -80t-43 -115t-14.5 -133.5q0 -102 22.5 -196.5t67.5 -162.5l301 658q-33 29 -72.5 44t-86.5 15z" />
<glyph unicode="&#xf9;" horiz-adv-x="1038" d="M158 807l-121 65v5l270 4l19 -2l-4 -127v-492q0 -90 50 -144.5t136 -54.5q74 0 130 31t75 70v645l-150 65v5l301 4l19 -2l-4 -127v-662l129 -18v-4l-256 -99l-31 6l-10 121h-2q-72 -47 -159 -85t-167 -38q-111 0 -169 60.5t-58 171.5zM287 1372q-10 18 3 40t35.5 36 t47 18t36.5 -10l203 -418l-22 -14z" />
<glyph unicode="&#xfa;" horiz-adv-x="1038" d="M158 807l-121 65v5l270 4l19 -2l-4 -127v-492q0 -90 50 -144.5t136 -54.5q74 0 130 31t75 70v645l-150 65v5l301 4l19 -2l-4 -127v-662l129 -18v-4l-256 -99l-31 6l-10 121h-2q-72 -47 -159 -85t-167 -38q-111 0 -169 60.5t-58 171.5zM457 1024l-23 14l203 418 q12 14 37 10t47.5 -18t35.5 -35.5t3 -40.5z" />
<glyph unicode="&#xfb;" horiz-adv-x="1038" d="M158 807l-121 65v5l270 4l19 -2l-4 -127v-492q0 -90 50 -144.5t136 -54.5q74 0 130 31t75 70v645l-150 65v5l301 4l19 -2l-4 -127v-662l129 -18v-4l-256 -99l-31 6l-10 121h-2q-72 -47 -159 -85t-167 -38q-111 0 -169 60.5t-58 171.5zM295 1018l-25 14l234 441h43 l233 -441l-24 -14l-232 297z" />
<glyph unicode="&#xfc;" horiz-adv-x="1038" d="M158 807l-121 65v5l270 4l19 -2l-4 -127v-492q0 -90 50 -144.5t136 -54.5q74 0 130 31t75 70v645l-150 65v5l301 4l19 -2l-4 -127v-662l129 -18v-4l-256 -99l-31 6l-10 121h-2q-72 -47 -159 -85t-167 -38q-111 0 -169 60.5t-58 171.5zM252 1227q0 41 27.5 68.5t66.5 27.5 t67.5 -27.5t28.5 -68.5t-28.5 -67.5t-67.5 -26.5t-66.5 26.5t-27.5 67.5zM614 1227q0 41 28 68.5t67 27.5t67.5 -27.5t28.5 -68.5t-28.5 -67.5t-67.5 -26.5t-67 26.5t-28 67.5z" />
<glyph unicode="&#xfd;" horiz-adv-x="929" d="M528 166l232 620l-127 86v5h303v-5l-113 -84q-10 -29 -33.5 -89t-53 -138t-64.5 -165t-67 -170t-59.5 -154.5t-43.5 -116.5l-86 -229q-23 -59 -41.5 -110.5t-32.5 -80.5q-12 -27 -36.5 -46t-65.5 -19q-47 0 -71 23.5t-24 57.5q0 35 26 59.5t73 24.5q43 0 71 -18l127 332 l-346 860l-96 63v5h418v-5l-135 -73zM463 1024l-23 14l203 418q12 14 37 10t47.5 -18t35.5 -35.5t3 -40.5z" />
<glyph unicode="&#xfe;" horiz-adv-x="1081" d="M20 1346v2l275 96h22l-4 -189v-471l29 19q59 39 134 70.5t147 31.5q80 0 149.5 -29.5t121.5 -85t82 -136.5t30 -181q0 -123 -43 -215t-114 -153.5t-163 -92t-192 -30.5q-59 0 -109.5 9t-73.5 17v-430l211 -82v-4h-481v4l104 76v1728zM313 307q0 -135 65.5 -207.5 t160.5 -72.5q61 0 113.5 28.5t90 80.5t58 124t20.5 160q0 84 -22.5 156.5t-64.5 126t-100.5 83t-129.5 29.5q-59 0 -111.5 -26.5t-79.5 -55.5v-426z" />
<glyph unicode="&#xff;" horiz-adv-x="929" d="M528 166l232 620l-127 86v5h303v-5l-113 -84q-10 -29 -33.5 -89t-53 -138t-64.5 -165t-67 -170t-59.5 -154.5t-43.5 -116.5l-86 -229q-23 -59 -41.5 -110.5t-32.5 -80.5q-12 -27 -36.5 -46t-65.5 -19q-47 0 -71 23.5t-24 57.5q0 35 26 59.5t73 24.5q43 0 71 -18l127 332 l-346 860l-96 63v5h418v-5l-135 -73zM205 1227q0 41 27.5 68.5t66.5 27.5t67.5 -27.5t28.5 -68.5t-28.5 -67.5t-67.5 -26.5t-66.5 26.5t-27.5 67.5zM567 1227q0 41 28 68.5t67 27.5t67.5 -27.5t28.5 -68.5t-28.5 -67.5t-67.5 -26.5t-67 26.5t-28 67.5z" />
<glyph unicode="&#x104;" horiz-adv-x="1239" d="M748 0v4l186 80l-156 412h-448l-148 -400l189 -92v-4h-410v4l156 94l409 1061l-24 66q35 10 77 38.5t64 57.5h16l80 -219l383 -1016l148 -82v-4h-176q-66 -66 -102 -129.5t-36 -124.5q0 -49 28 -82t79 -33t94 37l10 -24q-20 -29 -65 -55.5t-105 -26.5q-84 0 -119.5 43 t-35.5 96q0 135 200 299h-294zM362 586h383l-190 499h-2z" />
<glyph unicode="&#x105;" horiz-adv-x="878" d="M707 -23q-53 -59 -83 -117.5t-30 -113.5q0 -49 27.5 -82t78.5 -33t95 37l10 -24q-20 -29 -65.5 -55.5t-104.5 -26.5q-84 0 -120 43t-36 96q0 131 183 285q-45 12 -73 39.5t-42 62.5h-2l-78 -47q-35 -23 -82 -42t-111 -19q-100 0 -157.5 50t-57.5 128q0 59 30 98t71 59 q35 16 81 35t98 36t106.5 33.5t103.5 31.5l2 188q2 90 -44 139t-138 49q-41 0 -65.5 -9t-41.5 -19l-10 -97l-143 -51q-12 0 -19.5 10.5t-7.5 22.5q0 20 27 47q37 35 82 66.5t95 55.5t101 37t98 13q104 0 166 -56t60 -149l-15 -555l164 -94zM547 416q-25 -10 -45 -17 q-111 -35 -170 -61q-57 -25 -80 -57.5t-23 -79.5q0 -72 38 -110t104 -38q31 0 59.5 9.5t51 22.5t39 29.5t22.5 30.5z" />
<glyph unicode="&#x106;" horiz-adv-x="1353" d="M86 651q0 147 52 272.5t148.5 215.5t234.5 141t310 51q123 0 225.5 -17.5t205.5 -45.5l4 -281h-39q-12 45 -29 84q-14 35 -31.5 69t-33.5 52q-49 35 -124 61.5t-196 26.5q-123 0 -219 -43t-162.5 -121t-101.5 -186.5t-35 -239.5q0 -150 41 -272.5t114.5 -209.5t176 -134 t225.5 -47q92 0 159.5 23.5t116.5 64.5q18 16 40 50t40 68q23 39 43 86l37 -2l-49 -268q-109 -39 -206 -55.5t-208 -16.5q-168 0 -304 49.5t-233.5 138.5t-149.5 212.5t-52 273.5zM754 1440l-23 14l203 414q12 14 36.5 10t47 -18.5t36 -36t3.5 -39.5z" />
<glyph unicode="&#x107;" horiz-adv-x="876" d="M827 786q0 -29 -28.5 -54t-48.5 -34l-232 162q-119 0 -193.5 -93t-74.5 -284q0 -92 24.5 -166.5t68.5 -127t103.5 -81t128.5 -28.5q80 0 138.5 37t91.5 80l22 -35q-70 -82 -153.5 -132t-206.5 -50q-80 0 -151.5 28.5t-125 83.5t-84 134t-30.5 180q0 117 39 210 t106.5 157.5t156.5 99t189 34.5q66 0 115 -14t81 -33.5t48 -40.5t16 -33zM440 1024l-23 14l203 418q12 14 37 10t47.5 -18t35.5 -35.5t3 -40.5z" />
<glyph unicode="&#x10c;" horiz-adv-x="1353" d="M86 651q0 147 52 272.5t148.5 215.5t234.5 141t310 51q123 0 225.5 -17.5t205.5 -45.5l4 -281h-39q-12 45 -29 84q-14 35 -31.5 69t-33.5 52q-49 35 -124 61.5t-196 26.5q-123 0 -219 -43t-162.5 -121t-101.5 -186.5t-35 -239.5q0 -150 41 -272.5t114.5 -209.5t176 -134 t225.5 -47q92 0 159.5 23.5t116.5 64.5q18 16 40 50t40 68q23 39 43 86l37 -2l-49 -268q-109 -39 -206 -55.5t-208 -16.5q-168 0 -304 49.5t-233.5 138.5t-149.5 212.5t-52 273.5zM1012 1853l24 -14l-223 -422h-47l-221 422l26 14l219 -280z" />
<glyph unicode="&#x10d;" horiz-adv-x="876" d="M827 786q0 -29 -28.5 -54t-48.5 -34l-232 162q-119 0 -193.5 -93t-74.5 -284q0 -92 24.5 -166.5t68.5 -127t103.5 -81t128.5 -28.5q80 0 138.5 37t91.5 80l22 -35q-70 -82 -153.5 -132t-206.5 -50q-80 0 -151.5 28.5t-125 83.5t-84 134t-30.5 180q0 117 39 210 t106.5 157.5t156.5 99t189 34.5q66 0 115 -14t81 -33.5t48 -40.5t16 -33zM520 1188l232 297l24 -15l-233 -440h-43l-234 440l25 15z" />
<glyph unicode="&#x10e;" horiz-adv-x="1482" d="M319 1311q39 0 77 1t79 3q37 2 74 3t74 1q197 0 342 -48t241.5 -132t143.5 -201t47 -254q0 -139 -49.5 -265t-145.5 -221.5t-237.5 -151.5t-325.5 -56q-47 0 -100.5 2t-100.5 4q-35 2 -65.5 3t-65.5 1h-235v4l164 90v1123l-164 90v4h247zM416 424q0 -106 5 -180 t27.5 -120t68.5 -66.5t130 -20.5q123 0 224.5 45t172 126t109.5 192.5t39 244.5q0 156 -49 272.5t-135 194.5t-203 117t-250 39q-72 0 -139 -6v-838zM885 1853l24 -14l-223 -422h-47l-221 422l26 14l219 -280z" />
<glyph unicode="&#x10f;" horiz-adv-x="1150" d="M938 1251v-1161l135 -18v-4l-262 -99l-31 8l-8 117l-20 -12q-68 -41 -151 -69.5t-155 -28.5t-137 28.5t-117.5 83t-83 134t-30.5 182.5q0 119 40 210t110.5 154.5t165.5 96t204 32.5q55 0 99 -7t77 -17l-4 419l-123 43v5l273 96h22zM772 551q0 154 -61.5 230.5 t-173.5 76.5q-59 0 -109.5 -28.5t-87.5 -80t-57.5 -122t-20.5 -154.5q0 -90 24.5 -163.5t67.5 -127t103.5 -83t132.5 -29.5q66 0 114 27.5t68 56.5v397zM1194 1444q63 0 108 -51t45 -143q0 -113 -79.5 -185.5t-196.5 -99.5l-8 31q25 8 55.5 21.5t56 34t43 49t17.5 71.5 q0 49 -34 72.5t-85 29.5q-10 6 -20.5 25.5t-10.5 48.5q0 41 28 68.5t81 27.5z" />
<glyph unicode="&#x118;" d="M35 4l217 90v1123l-207 90v4h776l205 6l8 -2l13 -271h-41l-99 218h-475v-560l473 5l51 161h41v-376h-41l-51 159l-473 2v-600l533 4l110 201h39l-41 -262q-66 -66 -101.5 -127.5t-35.5 -122.5q0 -49 27.5 -82t78.5 -33t95 37l10 -24q-20 -29 -65.5 -55.5t-104.5 -26.5 q-84 0 -120 43t-36 96q0 131 201 295l-590 4h-397v4z" />
<glyph unicode="&#x119;" horiz-adv-x="903" d="M256 606q-4 -27 -6 -53.5t-2 -52.5q0 -82 20.5 -158t61.5 -134t102.5 -93t145.5 -35q92 0 147 35t96 80l21 -33q-68 -74 -158 -128t-217 -54q-80 0 -150.5 29.5t-124 85t-84 135t-30.5 182.5q0 113 33.5 204t93 155.5t139.5 100t170 35.5q152 0 230.5 -75.5t82.5 -208.5 l-20 -33zM655 641v8q0 43 -10 82t-31.5 68.5t-54.5 48t-76 18.5q-92 0 -146 -63.5t-75 -161.5h393zM604 0q-66 -66 -101.5 -129.5t-35.5 -124.5q0 -49 27.5 -82t78.5 -33t95 37l10 -24q-20 -29 -65.5 -55.5t-104.5 -26.5q-84 0 -120 43t-36 96q0 135 201 299h51z" />
<glyph unicode="&#x11a;" d="M35 4l217 90v1123l-207 90v4h776l205 6l8 -2l13 -271h-41l-99 218h-475v-560l473 5l51 161h41v-376h-41l-51 159l-473 2v-600l533 4l110 201h39l-41 -262h-10l-178 4h-850v4zM832 1853l24 -14l-223 -422h-47l-221 422l26 14l219 -280z" />
<glyph unicode="&#x11b;" horiz-adv-x="903" d="M256 606q-4 -27 -6 -53.5t-2 -52.5q0 -82 20.5 -158t61.5 -134t102.5 -93t145.5 -35q92 0 147 35t96 80l21 -33q-68 -74 -158 -128t-217 -54q-80 0 -150.5 29.5t-124 85t-84 135t-30.5 182.5q0 113 33.5 204t93 155.5t139.5 100t170 35.5q152 0 230.5 -75.5t82.5 -208.5 l-20 -33zM655 641v8q0 43 -10 82t-31.5 68.5t-54.5 48t-76 18.5q-92 0 -146 -63.5t-75 -161.5h393zM500 1188l232 297l24 -15l-233 -440h-43l-234 440l25 15z" />
<glyph unicode="&#x11e;" horiz-adv-x="1445" d="M1288 92q-41 -20 -91 -40.5t-110.5 -38t-134 -28t-161.5 -10.5q-154 0 -283 45.5t-222 131.5t-146.5 210.5t-53.5 284.5q0 152 53.5 278t152.5 216t239.5 140t314.5 50q66 0 120 -5t103 -13t96 -19.5t103 -25.5l4 -281h-41q-10 43 -25 80q-12 33 -28.5 66.5t-34.5 56.5 q-47 33 -123 61.5t-191 28.5q-129 0 -229 -43t-169 -123t-104.5 -191.5t-35.5 -248.5q0 -152 38 -272.5t108.5 -204.5t169 -129t218.5 -45q121 0 196 44t99 103v270l-196 92v5h503v-5l-139 -92v-348zM798 1479q-72 0 -122 25.5t-81.5 69.5t-48 102.5t-18.5 125.5h39 q12 -113 73.5 -171t157.5 -58t157.5 58.5t74.5 170.5h39q-4 -68 -19.5 -126t-47.5 -102t-82 -69.5t-122 -25.5z" />
<glyph unicode="&#x11f;" horiz-adv-x="968" d="M963 788h-226v-6q16 -23 38 -60.5t22 -105.5q0 -78 -30 -139t-81 -102t-118.5 -62.5t-143.5 -21.5q-29 0 -49.5 3t-42.5 7l-62 -53q-14 -23 -14 -47q0 -51 41 -73t96 -22h293q115 0 188.5 -60t73.5 -175q0 -78 -44 -148.5t-115.5 -123t-162.5 -83t-188 -30.5 q-82 0 -150.5 16.5t-117.5 47t-75.5 74.5t-26.5 100q0 39 21.5 72.5t57 63t81.5 55.5t94 48v4q-90 2 -145.5 44t-55.5 110q0 39 18 76l154 108v4q-35 14 -71 39t-65.5 58.5t-48 78.5t-18.5 103q0 70 27.5 128t77 99t117 64.5t147.5 23.5q49 0 92 -9t61 -13h351v-93z M827 -211q0 98 -62.5 139t-148.5 41l-239 -2q-25 -10 -51.5 -28.5t-50 -44t-38 -58.5t-14.5 -74q0 -49 22.5 -89t61.5 -66.5t93.5 -41t117.5 -14.5q135 0 222 62.5t87 175.5zM635 578q0 57 -12.5 109t-38 92t-63.5 63.5t-89 23.5q-84 0 -130 -67.5t-46 -171.5 q0 -61 14.5 -114.5t41 -94.5t63.5 -64.5t84 -23.5q84 0 130 68.5t46 179.5zM475 1094q-72 0 -122 25.5t-81.5 69.5t-48 102.5t-18.5 125.5h39q12 -113 73.5 -171t157.5 -58t157.5 58.5t74.5 170.5h39q-4 -68 -19.5 -126t-47.5 -102t-82 -69.5t-122 -25.5z" />
<glyph unicode="&#x130;" horiz-adv-x="651" d="M578 1307l-162 -90v-1123l162 -90v-4h-504v4l162 90v1123l-162 90v4h504v-4zM225 1608q0 41 28.5 71.5t74.5 30.5q45 0 73.5 -30.5t28.5 -71.5t-28.5 -70t-73.5 -29t-74 29t-29 70z" />
<glyph unicode="&#x131;" horiz-adv-x="507" d="M446 4v-4h-372v4l102 72v680l-125 45v2l273 110h22l-2 -188v-649z" />
<glyph unicode="&#x141;" horiz-adv-x="1105" d="M940 57l115 222h39l-45 -283h-11l-178 4h-833v4l211 90v418l-162 -115v78l162 115v627l-162 90v4h504v-4l-162 -90v-498l194 139v-76l-194 -141v-588z" />
<glyph unicode="&#x142;" horiz-adv-x="528" d="M455 4v-4h-373v4l102 72v452l-159 -112v78l159 112v694l-125 46v2l275 96h22l-4 -189v-530l178 127v-76l-178 -127v-573z" />
<glyph unicode="&#x143;" horiz-adv-x="1503" d="M1278 1200l-6 -1233h-43l-770 922q-47 57 -83 102t-61 78h-4v-205l-2 -751l193 -109v-4h-430v4l174 109l8 1015l-86 103l-127 76v4h303l694 -840q20 -25 48 -57.5t52.5 -63.5t44 -56.5t27.5 -37.5h4q-2 55 -2 110.5v114.5l2 719l-174 107v4h402v-4zM697 1440l-23 14 l203 414q12 14 36.5 10t47 -18.5t36 -36t3.5 -39.5z" />
<glyph unicode="&#x144;" horiz-adv-x="1071" d="M45 799v4l268 110h25v-137h4q23 14 59.5 37t81.5 44.5t93.5 35.5t95.5 14q135 0 190.5 -69.5t55.5 -198.5v-563l106 -72v-4h-377v4l103 72v542q0 90 -57.5 142.5t-145.5 52.5q-82 0 -135.5 -32.5t-73.5 -57.5v-647l102 -72v-4h-372v4l102 72v680zM475 1024l-23 14 l203 418q12 14 37 10t47.5 -18t35.5 -35.5t3 -40.5z" />
<glyph unicode="&#x147;" horiz-adv-x="1503" d="M1278 1200l-6 -1233h-43l-770 922q-47 57 -83 102t-61 78h-4v-205l-2 -751l193 -109v-4h-430v4l174 109l8 1015l-86 103l-127 76v4h303l694 -840q20 -25 48 -57.5t52.5 -63.5t44 -56.5t27.5 -37.5h4q-2 55 -2 110.5v114.5l2 719l-174 107v4h402v-4zM983 1853l24 -14 l-223 -422h-47l-221 422l26 14l219 -280z" />
<glyph unicode="&#x148;" horiz-adv-x="1071" d="M45 799v4l268 110h25v-137h4q23 14 59.5 37t81.5 44.5t93.5 35.5t95.5 14q135 0 190.5 -69.5t55.5 -198.5v-563l106 -72v-4h-377v4l103 72v542q0 90 -57.5 142.5t-145.5 52.5q-82 0 -135.5 -32.5t-73.5 -57.5v-647l102 -72v-4h-372v4l102 72v680zM549 1188l232 297 l24 -15l-233 -440h-43l-234 440l25 15z" />
<glyph unicode="&#x152;" horiz-adv-x="1943" d="M1081 0q-33 0 -59.5 -1t-54.5 -3q-29 -2 -57.5 -4t-65.5 -2q-178 0 -318.5 46t-238 131t-149.5 205t-52 269q0 141 50 265t146.5 216t238 145.5t325.5 53.5q57 0 98 -2t84 -4q31 -2 56.5 -3t58.5 -1h440l205 6l8 -2l12 -271h-41l-98 218h-495v-560l493 5l51 161h41v-376 h-41l-51 159l-493 2v-600l552 4l111 201h39l-41 -262h-10l-178 4h-566zM891 37q37 0 57.5 7t30.5 25.5t12 52.5t2 89v909q0 45 -5 75t-22.5 47.5t-49 24.5t-85.5 7q-150 0 -253 -49t-166.5 -132t-91 -195t-27.5 -234q0 -111 28.5 -222.5t98 -201.5t184.5 -146.5t287 -56.5z " />
<glyph unicode="&#x153;" horiz-adv-x="1619" d="M973 606q-4 -27 -6 -53.5t-2 -52.5q0 -82 20.5 -158t61 -134t102 -93t145.5 -35q92 0 147.5 35t96.5 80l21 -33q-68 -74 -158 -128t-217 -54q-92 0 -172 39.5t-135 113.5q-59 -72 -149.5 -112.5t-203.5 -40.5q-106 0 -189 34.5t-140.5 96t-88 147.5t-30.5 188 q0 98 33.5 183.5t94 147t144.5 96t187 34.5q119 0 210 -45t150 -125q59 82 145 126t191 44q152 0 230.5 -75.5t82.5 -208.5l-20 -33zM494 862q-59 0 -101.5 -29.5t-70 -80t-41 -115t-13.5 -133.5q0 -92 18.5 -179t54.5 -154t90 -107.5t126 -40.5q61 0 106.5 30.5t75 82.5 t43 119t13.5 140q0 92 -18.5 176t-55.5 148.5t-94 103.5t-133 39zM1372 641v8q0 43 -10 82t-31.5 68.5t-54.5 48t-76 18.5q-92 0 -146.5 -63.5t-74.5 -161.5h393z" />
<glyph unicode="&#x158;" horiz-adv-x="1286" d="M590 4v-4h-514v4l160 90v1123l-164 90v4h184h80t80 2q47 2 98 3t107 1q98 0 168.5 -17.5t117.5 -46.5q70 -43 103.5 -108.5t33.5 -147.5q0 -72 -24.5 -127t-61 -97t-83 -70.5t-89.5 -47.5v-4q20 -35 51 -79t66 -92t73 -99t75 -98q59 -78 119.5 -141.5t107.5 -92.5 q14 -10 32.5 -16t35.5 -10q18 -6 36 -9v-14h-200q-39 0 -67 3t-51.5 14.5t-45 31t-47.5 51.5l-51 64q-66 82 -124.5 166t-101.5 151q-20 31 -39.5 61.5t-33.5 53.5l-205 6v-508zM641 651q94 29 151.5 103.5t57.5 220.5q0 80 -24.5 137t-68.5 92t-104.5 51.5t-130.5 16.5 q-27 0 -52.5 -2t-53.5 -6v-617zM828 1853l24 -14l-223 -422h-47l-221 422l26 14l219 -280z" />
<glyph unicode="&#x159;" horiz-adv-x="710" d="M506 4v-4h-438v4l102 72v680l-125 45v2l268 110h23v-159h2q20 25 47 51t58.5 49t66.5 38t72 15q47 0 80.5 -22.5t39.5 -55.5q-4 -23 -32.5 -58.5t-55.5 -53.5h-16l-14 10q-29 20 -63 42t-68 22q-33 0 -54.5 -12.5t-34 -30t-18.5 -37t-8 -33.5v-600zM379 1188l232 297 l24 -15l-233 -440h-43l-234 440l25 15z" />
<glyph unicode="&#x15a;" horiz-adv-x="989" d="M92 319h41q12 -47 31 -90q16 -37 35.5 -76.5t44.5 -68.5q31 -25 82 -45.5t133 -20.5q63 0 113.5 20.5t85 56.5t52 83t17.5 103q0 55 -17.5 98t-48 76.5t-72.5 61.5t-89 50l-41 19q-70 33 -129.5 68.5t-102.5 80.5t-67.5 102.5t-24.5 135.5q0 84 34 150.5t93.5 112.5 t140 69.5t175.5 23.5q51 0 97 -5t87 -13l76 -11l14 -262h-39q-10 39 -22 76q-10 31 -25.5 61.5t-36.5 51.5q-29 25 -76 41t-112 16q-117 0 -178.5 -67.5t-61.5 -172.5q0 -51 14.5 -92t45 -75.5t81 -68.5t121.5 -69l88 -43q113 -53 178.5 -132t65.5 -210q0 -92 -37 -162.5 t-100.5 -119.5t-148.5 -74t-179 -25q-59 0 -114.5 7.5t-102.5 17.5l-90 20zM486 1440l-23 14l203 414q12 14 36.5 10t47 -18.5t36 -36t3.5 -39.5z" />
<glyph unicode="&#x15b;" horiz-adv-x="745" d="M121 250q12 -47 31.5 -94t56.5 -90q27 -25 60.5 -38.5t80.5 -13.5q90 0 129 48.5t39 113.5q0 33 -10 58.5t-29.5 46t-47.5 38l-60 37.5l-99 60q-78 47 -123 102t-45 141q0 57 25 102.5t68 78t100 50t123 17.5q76 0 130 -12t87 -29l8 -213h-37q-14 61 -29.5 99.5 t-43.5 70.5q-23 20 -49.5 33.5t-75.5 13.5q-80 0 -121 -42t-41 -101t30.5 -99t110.5 -87l78 -45q47 -29 84 -54.5t61.5 -54.5t38 -62.5t13.5 -78.5q0 -59 -24 -108.5t-64.5 -85.5t-98 -55.5t-127.5 -19.5q-94 0 -155.5 18.5t-90.5 35.5l-26 217zM354 1024l-23 14l203 418 q12 14 37 10t47.5 -18t35.5 -35.5t3 -40.5z" />
<glyph unicode="&#x15e;" horiz-adv-x="989" d="M92 319h41q12 -47 31 -90q16 -37 35.5 -76.5t44.5 -68.5q31 -25 82 -45.5t133 -20.5q63 0 113.5 20.5t85 56.5t52 83t17.5 103q0 55 -17.5 98t-48 76.5t-72.5 61.5t-89 50l-41 19q-70 33 -129.5 68.5t-102.5 80.5t-67.5 102.5t-24.5 135.5q0 84 34 150.5t93.5 112.5 t140 69.5t175.5 23.5q51 0 97 -5t87 -13l76 -11l14 -262h-39q-10 39 -22 76q-10 31 -25.5 61.5t-36.5 51.5q-29 25 -76 41t-112 16q-117 0 -178.5 -67.5t-61.5 -172.5q0 -51 14.5 -92t45 -75.5t81 -68.5t121.5 -69l88 -43q113 -53 178.5 -132t65.5 -210q0 -82 -29.5 -147.5 t-81 -112.5t-121 -76.5t-149.5 -37.5l-68 -64q18 -12 43 -30.5t46.5 -42t37 -51.5t15.5 -58q0 -43 -29 -76t-71 -55.5t-89 -34.5t-84 -17l-24 33q25 4 54.5 11.5t55 20.5t43 33.5t17.5 53.5q0 27 -14.5 49.5t-36 38.5t-45 28.5t-41.5 20.5l-2 13l137 122q-8 0 -15.5 -1 t-13.5 -1q-59 0 -114.5 7.5t-102.5 17.5l-90 20z" />
<glyph unicode="&#x15f;" horiz-adv-x="745" d="M121 250q12 -47 31.5 -94t56.5 -90q27 -25 60.5 -38.5t80.5 -13.5q90 0 129 48.5t39 113.5q0 33 -10 58.5t-29.5 46t-47.5 38l-60 37.5l-99 60q-78 47 -123 102t-45 141q0 57 25 102.5t68 78t100 50t123 17.5q76 0 130 -12t87 -29l8 -213h-37q-14 61 -29.5 99.5 t-43.5 70.5q-23 20 -49.5 33.5t-75.5 13.5q-80 0 -121 -42t-41 -101t30.5 -99t110.5 -87l78 -45q47 -29 84 -54.5t61.5 -54.5t38 -62.5t13.5 -78.5q0 -104 -69 -176t-181 -88l-72 -66q18 -12 43 -30.5t46.5 -42t36.5 -51.5t15 -58q0 -43 -28.5 -76t-70.5 -55.5t-89 -34.5 t-84 -17l-25 33q25 4 54.5 11.5t55.5 20.5t43 33.5t17 53.5q0 27 -14 49.5t-35.5 38.5t-45 28.5t-42.5 20.5l-2 13l141 124h-8q-94 0 -155.5 18.5t-90.5 35.5l-26 217z" />
<glyph unicode="&#x160;" horiz-adv-x="989" d="M92 319h41q12 -47 31 -90q16 -37 35.5 -76.5t44.5 -68.5q31 -25 82 -45.5t133 -20.5q63 0 113.5 20.5t85 56.5t52 83t17.5 103q0 55 -17.5 98t-48 76.5t-72.5 61.5t-89 50l-41 19q-70 33 -129.5 68.5t-102.5 80.5t-67.5 102.5t-24.5 135.5q0 84 34 150.5t93.5 112.5 t140 69.5t175.5 23.5q51 0 97 -5t87 -13l76 -11l14 -262h-39q-10 39 -22 76q-10 31 -25.5 61.5t-36.5 51.5q-29 25 -76 41t-112 16q-117 0 -178.5 -67.5t-61.5 -172.5q0 -51 14.5 -92t45 -75.5t81 -68.5t121.5 -69l88 -43q113 -53 178.5 -132t65.5 -210q0 -92 -37 -162.5 t-100.5 -119.5t-148.5 -74t-179 -25q-59 0 -114.5 7.5t-102.5 17.5l-90 20zM756 1853l24 -14l-223 -422h-47l-221 422l26 14l219 -280z" />
<glyph unicode="&#x161;" horiz-adv-x="745" d="M121 250q12 -47 31.5 -94t56.5 -90q27 -25 60.5 -38.5t80.5 -13.5q90 0 129 48.5t39 113.5q0 33 -10 58.5t-29.5 46t-47.5 38l-60 37.5l-99 60q-78 47 -123 102t-45 141q0 57 25 102.5t68 78t100 50t123 17.5q76 0 130 -12t87 -29l8 -213h-37q-14 61 -29.5 99.5 t-43.5 70.5q-23 20 -49.5 33.5t-75.5 13.5q-80 0 -121 -42t-41 -101t30.5 -99t110.5 -87l78 -45q47 -29 84 -54.5t61.5 -54.5t38 -62.5t13.5 -78.5q0 -59 -24 -108.5t-64.5 -85.5t-98 -55.5t-127.5 -19.5q-94 0 -155.5 18.5t-90.5 35.5l-26 217zM407 1188l232 297l24 -15 l-233 -440h-43l-234 440l25 15z" />
<glyph unicode="&#x164;" horiz-adv-x="1216" d="M168 1253l-121 -196h-39l53 297h37q8 -14 21 -25q10 -10 23.5 -17t29.5 -7h909q12 0 25.5 7t23.5 17q12 10 25 25h37l-6 -297h-37l-80 196h-367v-1159l203 -90v-4h-586v4l203 90v1159h-354zM840 1853l24 -14l-223 -422h-47l-221 422l26 14l219 -280z" />
<glyph unicode="&#x165;" horiz-adv-x="673" d="M643 786h-319q0 -137 -2.5 -269t-2.5 -265q-2 -92 41 -138t119 -46q57 0 102.5 21.5t65.5 35.5l8 -25q-37 -45 -107.5 -82.5t-154.5 -37.5q-72 0 -118 18t-73.5 51t-38.5 79t-11 99q0 41 1 97.5t2 121t2 132t3 131.5q0 16 1 36.5t1 40.5h-103v5l256 206h13l-4 -133h354z M567 1444q63 0 108 -51t45 -143q0 -113 -79.5 -185.5t-196.5 -99.5l-8 31q25 8 55.5 21.5t56 34t43 49t17.5 71.5q0 49 -34 72.5t-85 29.5q-10 6 -20.5 25.5t-10.5 48.5q0 41 28 68.5t81 27.5z" />
<glyph unicode="&#x16e;" horiz-adv-x="1437" d="M381 571q0 -133 14.5 -217t44.5 -145q45 -90 125 -130t203 -40q98 0 170 28.5t121 84.5q53 61 79.5 153t26.5 236v659l-174 107v4h402v-4l-160 -107v-637q0 -141 -25.5 -251.5t-85 -187.5t-156 -117t-237.5 -40t-240.5 32t-164 102.5t-94 185t-29.5 280.5v650l-152 90v4 h494v-4l-162 -90v-646zM755 1753q70 0 113 -40t43 -105q0 -66 -45 -106t-113 -40t-111.5 39t-43.5 107q0 63 45.5 104t111.5 41zM749 1733q-41 0 -67.5 -35t-26.5 -82q0 -55 28.5 -94t76.5 -39q41 0 68.5 34.5t27.5 86.5q0 55 -30 92t-77 37z" />
<glyph unicode="&#x16f;" horiz-adv-x="1038" d="M158 807l-121 65v5l270 4l19 -2l-4 -127v-492q0 -90 50 -144.5t136 -54.5q74 0 130 31t75 70v645l-150 65v5l301 4l19 -2l-4 -127v-662l129 -18v-4l-256 -99l-31 6l-10 121h-2q-72 -47 -159 -85t-167 -38q-111 0 -169 60.5t-58 171.5zM518 1409q70 0 113 -40t43 -105 q0 -66 -45 -106t-113 -40t-111.5 39t-43.5 107q0 63 45.5 104t111.5 41zM512 1389q-41 0 -67.5 -35t-26.5 -82q0 -55 28.5 -94t75.5 -39q41 0 69 34.5t28 86.5q0 55 -30 92t-77 37z" />
<glyph unicode="&#x178;" d="M131 1212l-156 95v4h519v-4l-168 -95l327 -579h6l326 579l-160 95v4h385v-4l-159 -95l-371 -653v-461l199 -94v-4h-576v4l199 94v459zM364 1608q0 39 28 67.5t69 28.5t68.5 -28.5t27.5 -67.5q0 -37 -28 -64.5t-68 -27.5q-41 0 -69 27.5t-28 64.5zM717 1608 q0 39 27.5 67.5t68.5 28.5t68.5 -28.5t27.5 -67.5q0 -37 -27.5 -64.5t-68.5 -27.5t-68.5 27.5t-27.5 64.5z" />
<glyph unicode="&#x179;" horiz-adv-x="1249" d="M238 1255l-99 -243h-45l17 348h49q6 -14 14 -25q8 -10 18.5 -17t22.5 -7h959v-27l-156 -201l-733 -1024v-4l741 2l129 226h43l-47 -287h-10l-178 4h-920v27l164 211l735 1017v7zM553 1440l-23 14l203 414q12 14 36.5 10t47 -18.5t36 -36t3.5 -39.5z" />
<glyph unicode="&#x17a;" horiz-adv-x="888" d="M807 872v-20l-119 -168l-428 -641l399 4q29 18 55.5 51t47.5 66q23 37 45 82h37l-64 -250l-211 4h-293l-227 -2v20l129 172l422 635l-399 -6q-20 -14 -37 -45t-29 -63q-14 -37 -24 -80h-37l12 280h39q4 -10 12 -18q6 -8 14.5 -14.5t18.5 -10.5l367 -2zM354 1024l-23 14 l203 418q12 14 37 10t47.5 -18t35.5 -35.5t3 -40.5z" />
<glyph unicode="&#x17b;" horiz-adv-x="1249" d="M238 1255l-99 -243h-45l17 348h49q6 -14 14 -25q8 -10 18.5 -17t22.5 -7h959v-27l-156 -201l-733 -1024v-4l741 2l129 226h43l-47 -287h-10l-178 4h-920v27l164 211l735 1017v7zM506 1608q0 41 28.5 71.5t74.5 30.5q45 0 73.5 -30.5t28.5 -71.5t-28.5 -70t-73.5 -29 t-74 29t-29 70z" />
<glyph unicode="&#x17c;" horiz-adv-x="888" d="M807 872v-20l-119 -168l-428 -641l399 4q29 18 55.5 51t47.5 66q23 37 45 82h37l-64 -250l-211 4h-293l-227 -2v20l129 172l422 635l-399 -6q-20 -14 -37 -45t-29 -63q-14 -37 -24 -80h-37l12 280h39q4 -10 12 -18q6 -8 14.5 -14.5t18.5 -10.5l367 -2zM334 1223 q0 41 29 71.5t74 30.5t73.5 -30.5t28.5 -71.5t-28.5 -70t-73.5 -29t-74 29t-29 70z" />
<glyph unicode="&#x17d;" horiz-adv-x="1249" d="M238 1255l-99 -243h-45l17 348h49q6 -14 14 -25q8 -10 18.5 -17t22.5 -7h959v-27l-156 -201l-733 -1024v-4l741 2l129 226h43l-47 -287h-10l-178 4h-920v27l164 211l735 1017v7zM859 1853l24 -14l-223 -422h-47l-221 422l26 14l219 -280z" />
<glyph unicode="&#x17e;" horiz-adv-x="888" d="M807 872v-20l-119 -168l-428 -641l399 4q29 18 55.5 51t47.5 66q23 37 45 82h37l-64 -250l-211 4h-293l-227 -2v20l129 172l422 635l-399 -6q-20 -14 -37 -45t-29 -63q-14 -37 -24 -80h-37l12 280h39q4 -10 12 -18q6 -8 14.5 -14.5t18.5 -10.5l367 -2zM430 1188l232 297 l24 -15l-233 -440h-43l-234 440l25 15z" />
<glyph unicode="&#x2c6;" horiz-adv-x="700" d="M119 1018l-25 14l234 441h43l233 -441l-24 -14l-232 297z" />
<glyph unicode="&#x2c7;" horiz-adv-x="700" d="M348 1188l232 297l24 -15l-233 -440h-43l-234 440l25 15z" />
<glyph unicode="&#x2d8;" horiz-adv-x="800" d="M354 1094q-72 0 -122 25.5t-81.5 69.5t-48 102.5t-18.5 125.5h39q12 -113 73.5 -171t157.5 -58t157.5 58.5t74.5 170.5h39q-4 -68 -19.5 -126t-47.5 -102t-82 -69.5t-122 -25.5z" />
<glyph unicode="&#x2d9;" horiz-adv-x="729" d="M264 1223q0 41 29 71.5t74 30.5t73.5 -30.5t28.5 -71.5t-28.5 -70t-73.5 -29t-74 29t-29 70z" />
<glyph unicode="&#x2da;" horiz-adv-x="735" d="M352 1409q70 0 113 -40t43 -105q0 -66 -45 -106t-113 -40t-111.5 39t-43.5 107q0 63 45.5 104t111.5 41zM346 1389q-41 0 -67.5 -35t-26.5 -82q0 -55 28.5 -94t75.5 -39q41 0 69 34.5t28 86.5q0 55 -30 92t-77 37z" />
<glyph unicode="&#x2dc;" horiz-adv-x="954" d="M420 1184q-59 0 -101.5 -16.5t-80.5 -75.5l-25 12l125 196l115 -4h100q59 0 101 16.5t81 76.5l25 -13l-123 -196l-115 4h-102z" />
<glyph unicode="&#x2000;" horiz-adv-x="939" />
<glyph unicode="&#x2001;" horiz-adv-x="1878" />
<glyph unicode="&#x2002;" horiz-adv-x="939" />
<glyph unicode="&#x2003;" horiz-adv-x="1878" />
<glyph unicode="&#x2004;" horiz-adv-x="626" />
<glyph unicode="&#x2005;" horiz-adv-x="469" />
<glyph unicode="&#x2006;" horiz-adv-x="313" />
<glyph unicode="&#x2007;" horiz-adv-x="313" />
<glyph unicode="&#x2008;" horiz-adv-x="234" />
<glyph unicode="&#x2009;" horiz-adv-x="375" />
<glyph unicode="&#x200a;" horiz-adv-x="104" />
<glyph unicode="&#x2010;" horiz-adv-x="776" d="M657 420h-538v96h538v-96z" />
<glyph unicode="&#x2011;" horiz-adv-x="776" d="M657 420h-538v96h538v-96z" />
<glyph unicode="&#x2012;" horiz-adv-x="776" d="M657 420h-538v96h538v-96z" />
<glyph unicode="&#x2013;" horiz-adv-x="1230" d="M1118 428h-1005v84h1005v-84z" />
<glyph unicode="&#x2014;" horiz-adv-x="1634" d="M1522 428h-1409v84h1409v-84z" />
<glyph unicode="&#x2018;" horiz-adv-x="454" d="M240 963q-63 0 -109.5 53t-46.5 143q0 57 21.5 104.5t59.5 84t89 61.5t111 39l8 -31q-27 -10 -57.5 -22.5t-56.5 -33t-43 -50t-17 -72.5q0 -49 33.5 -72.5t84.5 -29.5q10 -6 21.5 -26.5t11.5 -49.5q0 -41 -28.5 -69.5t-81.5 -28.5z" />
<glyph unicode="&#x2019;" horiz-adv-x="466" d="M236 1440q63 0 109 -53.5t46 -143.5q0 -57 -21.5 -104t-59.5 -84t-89 -61.5t-110 -39.5l-9 31q27 8 56.5 21.5t56.5 34t44 50t17 72.5q0 49 -33.5 73t-84.5 30q-10 6 -21.5 26.5t-11.5 48.5q0 41 29 70t82 29z" />
<glyph unicode="&#x201a;" horiz-adv-x="479" d="M221 205q66 0 112 -54.5t46 -146.5q0 -59 -22.5 -106.5t-60.5 -84t-90 -62t-112 -40.5l-8 31q27 8 57.5 21.5t57 35t44 52t17.5 73.5q0 49 -33.5 74t-87.5 31q-10 6 -21 26.5t-11 48.5q0 41 29.5 71t82.5 30z" />
<glyph unicode="&#x201c;" horiz-adv-x="823" d="M608 963q-63 0 -109 53t-46 143q0 57 21.5 104.5t59 84t89 61.5t110.5 39l8 -31q-27 -10 -57.5 -22.5t-56 -33t-43 -50t-17.5 -72.5q0 -49 34 -72.5t85 -29.5q10 -6 21.5 -26.5t11.5 -49.5q0 -41 -29 -69.5t-82 -28.5zM240 963q-63 0 -109.5 53t-46.5 143 q0 57 21.5 104.5t59.5 84t89 61.5t111 39l8 -31q-27 -10 -57.5 -22.5t-56.5 -33t-43 -50t-17 -72.5q0 -49 33.5 -72.5t84.5 -29.5q10 -6 21.5 -26.5t11.5 -49.5q0 -41 -28.5 -69.5t-81.5 -28.5z" />
<glyph unicode="&#x201d;" horiz-adv-x="835" d="M236 1440q63 0 109 -53.5t46 -143.5q0 -57 -21.5 -104t-59.5 -84t-89 -61.5t-110 -39.5l-9 31q27 8 56.5 21.5t56.5 34t44 50t17 72.5q0 49 -33.5 73t-84.5 30q-10 6 -21.5 26.5t-11.5 48.5q0 41 29 70t82 29zM604 1440q63 0 109.5 -53.5t46.5 -143.5q0 -57 -21.5 -104 t-59.5 -84t-89 -61.5t-111 -39.5l-8 31q27 8 56.5 21.5t56 34t44 50t17.5 72.5q0 49 -33.5 73t-85.5 30q-10 6 -21 26.5t-11 48.5q0 41 28.5 70t81.5 29z" />
<glyph unicode="&#x201e;" horiz-adv-x="845" d="M221 205q63 0 109.5 -53.5t46.5 -143.5q0 -57 -21.5 -104t-59.5 -84t-89 -61.5t-111 -39.5l-8 31q27 8 56.5 21.5t56 34t44 50t17.5 72.5q0 49 -33.5 73t-85.5 30q-10 6 -21 26.5t-11 48.5q0 41 28.5 70t81.5 29zM590 205q63 0 109 -53.5t46 -143.5q0 -57 -21.5 -104 t-59 -84t-89 -61.5t-110.5 -39.5l-8 31q27 8 56.5 21.5t56 34t44 50t17.5 72.5q0 49 -34 73t-85 30q-10 6 -21.5 26.5t-11.5 48.5q0 41 29 70t82 29z" />
<glyph unicode="&#x2022;" horiz-adv-x="686" d="M162 567q0 78 52 129.5t126 51.5q78 0 131 -51.5t53 -129.5t-53 -128t-131 -50q-74 0 -126 50t-52 128z" />
<glyph unicode="&#x2026;" horiz-adv-x="1830" d="M794 92q0 53 35 87t84 34q51 0 87 -34t36 -87q0 -51 -36 -85t-87 -34q-49 0 -84 34t-35 85zM106 92q0 53 35 87t84 34q51 0 87 -34t36 -87q0 -51 -36 -85t-87 -34q-49 0 -84 34t-35 85zM1482 92q0 53 35 87t84 34q51 0 87 -34t36 -87q0 -51 -36 -85t-87 -34q-49 0 -84 34 t-35 85z" />
<glyph unicode="&#x202f;" horiz-adv-x="375" />
<glyph unicode="&#x2039;" horiz-adv-x="524" d="M88 516l307 326l21 -6l-189 -332v-2l189 -332l-21 -6l-307 325v27z" />
<glyph unicode="&#x203a;" horiz-adv-x="524" d="M436 489l-307 -325l-20 6l188 332v2l-188 332l20 6l307 -326v-27z" />
<glyph unicode="&#x205f;" horiz-adv-x="469" />
<glyph unicode="&#x20ac;" horiz-adv-x="1218" d="M74 500h162q-2 23 -3.5 51.5t-1.5 54.5q0 59 7 107h-140l11 55h137q18 106 63 194.5t112.5 152t159 98t201.5 34.5q47 0 86 -5t74 -13t70 -19.5t73 -25.5l5 -260h-35q-8 45 -19 82q-10 33 -22.5 65.5t-26.5 48.5q-33 33 -87 56.5t-130 23.5q-162 0 -252 -117.5 t-110 -314.5h516l-11 -55h-510q-2 -23 -2 -46.5v-54.5v-55t5 -57h483l-10 -54h-465q29 -205 115.5 -318.5t238.5 -113.5q88 0 132 23.5t83 60.5q14 16 28.5 48t26.5 65q14 37 27 82l41 -2l-41 -250q-82 -37 -158 -53.5t-145 -16.5q-221 0 -351 128t-167 347h-178z" />
<glyph unicode="&#x2122;" horiz-adv-x="1875" d="M954 1239l-110 68v4h229l8 -56l224 -493h2l217 493l8 56h225v-4l-104 -62l16 -575l94 -58v-4h-315v4l94 58l-6 407q-2 51 -2 75t2 44h-4q-4 -14 -14.5 -45t-20.5 -53l-186 -418l-27 -72h-43l-29 72l-196 442q-8 18 -14.5 38t-10.5 34h-2q2 -14 2 -33v-76l-14 -411 l115 -62v-4h-265v4l107 62zM483 1276v-602l123 -62v-4h-370v4l118 62v602l-184 -2l-70 -131h-24l30 194h21q2 -8 10 -14q12 -12 31 -12h524q10 0 27 12q8 6 14 14h17l-5 -194h-22l-47 131z" />
<glyph unicode="&#x25fc;" horiz-adv-x="880" d="M0 881h881v-881h-881v881z" />
<glyph unicode="&#xf6c3;" horiz-adv-x="448" d="M209 1464q63 0 108 -51t45 -143q0 -113 -79.5 -185.5t-196.5 -99.5l-8 31q25 8 55.5 21.5t56 34t43 49t17.5 71.5q0 49 -34 72.5t-85 29.5q-10 6 -20.5 25.5t-10.5 48.5q0 41 28 68.5t81 27.5z" />
<glyph unicode="&#xfb06;" horiz-adv-x="1435" d="M121 250q12 -47 31.5 -94t56.5 -90q27 -25 60.5 -38.5t80.5 -13.5q90 0 129 48.5t39 113.5q0 33 -10 58.5t-29.5 46t-47.5 38l-60 37.5l-99 60q-78 47 -123 102t-45 141q0 55 24 100.5t64.5 77t96 50t119.5 20.5q-16 29 -28.5 72t-12.5 102q0 61 23.5 118.5t67.5 100.5 t109.5 69t149.5 26q90 0 161.5 -24.5t116.5 -74.5q45 -47 67.5 -110.5t22.5 -159.5v-162h355l-35 -78h-320q0 -137 -2 -269t-2 -265q0 -92 42 -138t118 -46q57 0 102.5 21.5t65.5 35.5l8 -25q-37 -45 -107.5 -82.5t-154.5 -37.5q-72 0 -118 18t-73.5 51t-39 79t-11.5 99 q0 41 1 97.5t2.5 121t2.5 132t3 131.5q0 16 1 36.5t1 40.5h-103v5l115 118q4 41 4 80v62q0 129 -59.5 209.5t-188.5 80.5q-66 0 -117 -22.5t-86.5 -60t-54 -88t-18.5 -105.5q0 -53 10 -96t18 -62q66 -4 115 -15t78 -26l8 -213h-37q-14 61 -29.5 99.5t-43.5 70.5 q-23 20 -49.5 33.5t-75.5 13.5q-80 0 -121 -42t-41 -101t30.5 -99t110.5 -87l78 -45q47 -29 84 -54.5t61.5 -54.5t38 -62.5t13.5 -78.5q0 -59 -24 -108.5t-64.5 -85.5t-98 -55.5t-127.5 -19.5q-94 0 -155.5 18.5t-90.5 35.5l-26 217z" />
<glyph horiz-adv-x="1574" d="M1544 786h-319q0 -137 -2 -269t-2 -265q0 -92 42 -138t117 -46q57 0 102.5 21.5t65.5 35.5l8 -25q-37 -45 -107.5 -82.5t-154.5 -37.5q-72 0 -118 18t-73.5 51t-38.5 79t-11 99q0 41 1 97.5t2 121t2 132t3 131.5q0 16 1 36.5t1 40.5h-102v5l114 118q4 41 4 80v62 q0 129 -59 209.5t-189 80.5q-66 0 -116.5 -22.5t-86.5 -60t-54.5 -88t-18.5 -105.5q0 -53 10 -96t19 -62q72 0 137 -8t98 -25q12 -14 12 -38.5t-9 -47t-22.5 -40t-27.5 -19.5q-6 0 -12 2t-19.5 8t-36 16.5t-61.5 26.5q-47 20 -93 41t-83 27q-47 0 -87 -27.5t-68.5 -75 t-45 -111t-16.5 -134.5q0 -203 92 -313.5t236 -110.5q59 0 106 19.5t84 48t63.5 61.5t45.5 61l26 -26q-66 -113 -171 -187.5t-255 -74.5q-80 0 -152.5 27.5t-128 80.5t-88 133t-32.5 182q0 109 34.5 199t97 155.5t148.5 104.5t191 45q-16 29 -28.5 72t-12.5 102 q0 61 23.5 118.5t67.5 100.5t109.5 69t149.5 26q90 0 162 -24.5t117 -74.5q45 -47 67.5 -110.5t22.5 -159.5v-162h354z" />
<glyph horiz-adv-x="700" d="M358 1702l-219 -281l-26 15l221 422h47l223 -422l-24 -15z" />
<glyph horiz-adv-x="700" d="M580 1853l24 -14l-223 -422h-47l-221 422l26 14l219 -280z" />
<glyph horiz-adv-x="880" d="M291 1784q-10 18 3 39.5t35.5 36t47 18.5t37.5 -10l202 -414l-22 -14z" />
<glyph horiz-adv-x="954" d="M326 1440l-23 14l203 414q12 14 36.5 10t47 -18.5t36 -36t3.5 -39.5z" />
<glyph horiz-adv-x="735" d="M360 1753q70 0 113 -40t43 -105q0 -66 -45 -106t-113 -40t-111.5 39t-43.5 107q0 63 45.5 104t111.5 41zM354 1733q-41 0 -67.5 -35t-26.5 -82q0 -55 28.5 -94t76.5 -39q41 0 68.5 34.5t27.5 86.5q0 55 -30 92t-77 37z" />
<glyph horiz-adv-x="729" d="M96 1608q0 39 28 67.5t69 28.5t68.5 -28.5t27.5 -67.5q0 -37 -28 -64.5t-68 -27.5q-41 0 -69 27.5t-28 64.5zM449 1608q0 39 27.5 67.5t68.5 28.5t68.5 -28.5t27.5 -67.5q0 -37 -27.5 -64.5t-68.5 -27.5t-68.5 27.5t-27.5 64.5z" />
<glyph horiz-adv-x="729" d="M262 1608q0 41 28.5 71.5t74.5 30.5q45 0 73.5 -30.5t28.5 -71.5t-28.5 -70t-73.5 -29t-74 29t-29 70z" />
<glyph horiz-adv-x="727" d="M354 1479q-72 0 -122 25.5t-81.5 69.5t-48 102.5t-18.5 125.5h39q12 -113 73.5 -171t157.5 -58t157.5 58.5t74.5 170.5h39q-4 -68 -19.5 -126t-47.5 -102t-82 -69.5t-122 -25.5z" />
<glyph horiz-adv-x="954" d="M420 1548q-59 0 -101.5 -16t-80.5 -76l-25 12l125 197l115 -4h100q59 0 101 16.5t81 75.5l25 -12l-123 -197l-115 4h-102z" />
<glyph horiz-adv-x="1687" d="M987 567l-8 2l-27 -37q-35 -47 -79 -100t-91 -98t-97 -75t-99 -30q-47 0 -78 42t-31 118q0 117 49 229.5t126 202.5t172 145.5t190 55.5q18 0 38.5 -2t36.5 -6t21 -4l22 55l99 2l-35 -129q-12 -45 -26.5 -102.5t-29 -117t-27.5 -116.5t-24 -104q-10 -51 -17 -89t-7 -59 q0 -31 13 -53.5t58 -22.5q82 0 155 43t127 118t86 175.5t32 216.5q0 119 -43 215.5t-117 165t-175 105.5t-218 37q-170 0 -307.5 -62.5t-234.5 -172t-150.5 -257t-53.5 -315.5q0 -121 40 -235.5t119 -206t198 -146.5t276 -55q88 0 163 17t137.5 45t113.5 64.5t90 73.5 l29 -26q-45 -47 -104.5 -89t-132.5 -74t-158 -50.5t-179 -18.5q-152 0 -286 42t-234 128t-158.5 217t-58.5 310q0 182 69.5 339.5t188.5 273.5t278.5 181.5t337.5 65.5q154 0 276 -44t206 -121t128 -181.5t44 -223.5q0 -135 -45 -247.5t-121 -192.5t-177.5 -124t-211.5 -44 q-72 0 -102.5 21.5t-30.5 66.5q0 63 30 174zM1075 924q-33 16 -76 32.5t-55 16.5q-57 0 -114.5 -46t-103.5 -121t-75 -171t-29 -197q0 -49 13.5 -80.5t44.5 -31.5q23 0 60.5 28.5t68.5 59.5q111 111 166 219t80 209z" />
<glyph horiz-adv-x="499" d="M200 1466h99v-1667h-99v1667z" />
<glyph horiz-adv-x="1017" d="M557 1106v-381h389v-90h-389v-393h-98v393h-387v90h387v381h98z" />
<glyph horiz-adv-x="1171" d="M1022 246h-872v90h872v-90zM633 1159v-299h389v-90h-389v-311h-98v311h-387v90h387v299h98z" />
<glyph horiz-adv-x="1075" d="M965 643h-854v90h854v-90zM414 342q0 51 33.5 84t80.5 33q49 0 84 -32.5t35 -84.5q0 -49 -34.5 -81.5t-84.5 -32.5q-47 0 -80.5 32.5t-33.5 81.5zM414 1022q0 51 33.5 84t80.5 33q49 0 84 -33t35 -84q0 -49 -34.5 -81.5t-84.5 -32.5q-47 0 -80.5 32.5t-33.5 81.5z" />
<glyph horiz-adv-x="1107" d="M981 494h-854v84h854v-84zM981 797h-854v86h854v-86z" />
<glyph horiz-adv-x="1071" d="M933 291h-100v421h-731v91h831v-512z" />
<glyph horiz-adv-x="509" d="M387 -285q-63 94 -118.5 199.5t-95.5 220.5t-63.5 238t-23.5 252q0 117 22.5 228.5t62.5 222t97 224t125 234.5h41q-63 -154 -102 -276.5t-60.5 -230.5t-30 -205t-8.5 -197q0 -217 44 -452t151 -458h-41z" />
<glyph horiz-adv-x="509" d="M81 -283q106 223 150.5 457.5t44.5 452.5q0 100 -8 197t-29.5 205t-60.5 230.5t-103 276.5h41q68 -121 125.5 -234.5t97 -224t62.5 -222.5t23 -228q0 -129 -24 -252t-63.5 -238t-95 -220.5t-119.5 -199.5h-41z" />
<glyph horiz-adv-x="794" d="M668 614h-541v107h541v-107z" />
<glyph horiz-adv-x="630" d="M606 1534v-35l-275 -19v-1693l275 -19v-35h-406v1801h406z" />
<glyph horiz-adv-x="630" d="M430 1534v-1801h-406v35l275 19v1693l-275 19v35h406z" />
<glyph horiz-adv-x="647" d="M33 639q72 6 116 29.5t67.5 63.5t30.5 93.5t7 120.5v34.5t-1 49.5t-1 76v113q0 94 25.5 153.5t72.5 94t114 48t151 13.5v-27q-70 -8 -113 -35.5t-67.5 -70.5t-33 -100.5t-8.5 -123.5q0 -51 2 -104t2 -113q0 -74 -12 -128t-40.5 -93t-77 -64.5t-119.5 -39.5v-4 q72 -16 120 -42t76.5 -66t40.5 -94t12 -128q0 -59 -2 -114.5t-2 -106.5q0 -66 8.5 -123.5t33 -100.5t67.5 -70.5t113 -35.5v-27q-84 0 -151 13.5t-114 48.5t-72.5 94t-25.5 154v113.5t1 76.5t1 50.5v35.5q0 68 -7 121t-30.5 91t-67.5 61.5t-116 29.5v33z" />
<glyph horiz-adv-x="647" d="M614 606q-72 -6 -116 -29.5t-67.5 -61.5t-30.5 -91t-7 -121v-35.5t1 -50.5t1 -77v-113q0 -94 -25.5 -153.5t-72.5 -94.5t-115 -48.5t-149 -13.5v27q70 8 112.5 35.5t67 70.5t33 100.5t8.5 123.5q0 51 -2 106t-2 115q0 74 12 128t41 94t77 65.5t119 42.5v4 q-72 14 -119.5 39.5t-76.5 64.5t-41 93.5t-12 127.5q0 59 2 112.5t2 104.5q0 66 -8.5 123.5t-33 100.5t-67.5 70.5t-112 35.5v27q82 0 149.5 -13.5t114.5 -48t72.5 -94t25.5 -153.5v-113t-1 -76t-1 -49v-35q0 -68 7 -121t30.5 -93t67.5 -63.5t116 -29.5v-33z" />
<glyph horiz-adv-x="909" d="M111 690l307 326l21 -6l-189 -332v-2l189 -332l-21 -6l-307 325v27zM433 690l307 326l20 -6l-188 -332v-2l188 -332l-20 -6l-307 325v27z" />
<glyph horiz-adv-x="909" d="M799 663l-307 -325l-21 6l188 332v2l-188 332l21 6l307 -326v-27zM477 663l-307 -325l-20 6l188 332v2l-188 332l20 6l307 -326v-27z" />
<glyph horiz-adv-x="1239" d="M1122 631h-1005v84h1005v-84z" />
<glyph horiz-adv-x="1642" d="M1526 629h-1409v84h1409v-84z" />
<glyph horiz-adv-x="587" d="M111 690l307 326l21 -6l-189 -332v-2l189 -332l-21 -6l-307 325v27z" />
<glyph horiz-adv-x="587" d="M477 665l-307 -325l-20 6l188 332v2l-188 332l20 6l307 -326v-27z" />
<glyph horiz-adv-x="491" d="M196 1466h98v-614h-98v614zM196 413h98v-614h-98v614z" />
<glyph horiz-adv-x="1787" d="M121 250q12 -47 31.5 -94t56.5 -90q27 -25 60.5 -38.5t80.5 -13.5q90 0 129 48.5t39 113.5q0 33 -10 58.5t-29.5 46t-47.5 38l-60 37.5l-99 60q-78 47 -123 102t-45 141q0 55 24 99.5t63.5 77t94 51t117.5 20.5q-16 29 -29.5 71t-13.5 97q0 70 25 128.5t75 100.5 t123.5 65.5t172.5 23.5q92 0 159.5 -14.5t108.5 -30.5l-4 -113v-451l29 19q59 39 133.5 70.5t146.5 31.5q80 0 149.5 -29.5t122 -85t82 -136.5t29.5 -181q0 -123 -43 -215t-113.5 -153.5t-163 -92t-192.5 -30.5q-59 0 -109.5 9t-72.5 17v-430l211 -82v-4h-481v4l104 76v1714 q-16 10 -63.5 24.5t-112.5 14.5q-133 0 -200.5 -77t-67.5 -187q0 -55 9 -92t19 -62q70 -2 120 -14t81 -27l8 -213h-37q-14 61 -29.5 99.5t-43.5 70.5q-23 20 -49.5 33.5t-75.5 13.5q-80 0 -121 -42t-41 -101t30.5 -99t110.5 -87l78 -45q47 -29 84 -54.5t61.5 -54.5t38 -62.5 t13.5 -78.5q0 -59 -24 -108.5t-64.5 -85.5t-98 -55.5t-127.5 -19.5q-94 0 -155.5 18.5t-90.5 35.5l-26 217zM1020 307q0 -135 65.5 -207.5t159.5 -72.5q61 0 113.5 28.5t90.5 80.5t58.5 124t20.5 160q0 84 -22.5 156.5t-64.5 126t-100.5 83t-130.5 29.5q-59 0 -111 -26.5 t-79 -55.5v-426zM750 -518h2l-2 -2v2z" />
<glyph horiz-adv-x="794" d="M668 614h-541v107h541v-107z" />
<glyph horiz-adv-x="1005" d="M187 1059l315 -317l318 317l63 -63l-317 -318l317 -315l-63 -64l-318 316l-315 -316l-64 64l316 315l-316 318z" />
<glyph horiz-adv-x="714" d="M422.019 -26.9199q-54.9971 0 -111.493 35.998t-102.494 96.4941q-45.9971 60.4961 -75.9951 136.991t-29.998 156.49q0 136.992 53.4971 211.987q53.4961 74.9961 168.489 86.9951l46.9971 5.99902q50.9971 6 84.4951 13.5q33.498 7.49902 53.9971 20.498 q20.498 12.999 28.998 34.498q8.49902 21.499 8.49902 56.4971q0 22.998 -3 51.4961q-2.99902 28.499 -6.99902 57.4971h33.998q9.99902 -28.998 22.498 -83.9951q12.5 -54.9971 12.5 -124.992q0 -97.9941 -38.998 -142.991q-17.999 -19.999 -43.4971 -28.498 q-25.499 -8.5 -75.4961 -12.5l-64.9951 -6.99902q-54.9971 -6 -99.9941 -13.999q-44.9971 -8 -76.9951 -26.499t-49.4971 -48.9971t-17.499 -84.4941q0 -60.9971 31.998 -98.9941q31.998 -37.998 80.9951 -57.4971q48.9971 -19.498 109.493 -26.498 q60.4961 -6.99902 117.493 -6.99902q9.99902 -10 23.498 -35.998q13.499 -25.999 13.499 -65.9961q0 -40.998 -21.498 -69.9961q-21.499 -28.998 -72.4961 -28.998zM625.006 1198.01q0 -48.9971 -33.998 -82.9951q-33.9971 -33.998 -82.9941 -33.998t-83.9951 33.998 t-34.998 82.9951q0 48.9961 34.998 81.9941t83.9951 32.998t82.9941 -32.998q33.998 -32.998 33.998 -81.9941z" />
<glyph horiz-adv-x="505" d="M236 897.021q-10 -95.9941 -22.5 -216.986t-25 -241.985q-12.5 -120.992 -22.5 -232.485t-16 -189.488q4 -22.999 35.5 -32.998q31.5 -10 66.5 -10q37 0 66.5 10q29.5 9.99902 33.5 32.998q-6 77.9951 -15 189.488t-21.5 232.485q-12.5 120.993 -24.5 241.485 q-12 120.493 -23 217.486h-32zM135 1169.01q0 -48.9971 34 -82.9951t83 -33.998t84 33.998t35 82.9951q0 48.9961 -35 81.9941t-84 32.998t-83 -32.998t-34 -81.9941z" />
</font>
</defs>
</svg>
